<?xml version="1.0" standalone="no"?>
<!DOCTYPE svg PUBLIC "-//W3C//DTD SVG 1.1//EN" "http://www.w3.org/Graphics/SVG/1.1/DTD/svg11.dtd" >
<svg>
<metadata>
Created by FontForge 20120731 at Sat Jun 29 15:32:16 2019
 By www
&#60; info@fontfont.de &#62; Copyright Evert Bloemsma, 1998. Published by FontShop International.  FontFont Release 22
</metadata>
<defs>
<font id="Cocon-Regular" horiz-adv-x="590" >
  <font-face 
    font-family="Cocon"
    font-weight="500"
    font-stretch="normal"
    units-per-em="1000"
    panose-1="0 0 0 0 0 0 0 0 0 0"
    ascent="800"
    descent="-200"
    x-height="540"
    cap-height="685"
    bbox="-46 -285 1375 931"
    underline-thickness="20"
    underline-position="-156"
    stemh="119"
    stemv="137"
    unicode-range="U+0020-FB02"
  />
<missing-glyph horiz-adv-x="500" 
 />
    <glyph glyph-name=".notdef" horiz-adv-x="500" 
 />
    <glyph glyph-name="space" unicode=" " horiz-adv-x="222" 
 />
    <glyph glyph-name="exclam" unicode="!" horiz-adv-x="318" 
d="M223 601l-10 -366h-41c-48 0 -77 31 -78 84l-10 366h61c48 0 79 -31 78 -84zM247 86c0 -47 -39 -86 -86 -86s-86 39 -86 86s39 86 86 86s86 -39 86 -86z" />
    <glyph glyph-name="quotedbl" unicode="&#x22;" horiz-adv-x="394" 
d="M366 602l-15 -158h-32c-48 0 -73 31 -78 84l-14 158h61c48 0 83 -31 78 -84zM177 602l-15 -158h-32c-48 0 -73 31 -78 84l-14 158h61c48 0 83 -31 78 -84z" />
    <glyph glyph-name="numbersign" unicode="#" 
d="M574 469c0 -41 -26 -65 -72 -65h-31l-24 -122h83v-31c0 -41 -26 -66 -72 -66h-30l-36 -185h-41c-40 0 -55 21 -55 57c0 8 1 16 3 25l20 103h-105l-36 -185h-41c-40 0 -55 21 -55 57c0 8 1 17 3 26l20 102h-90v32c0 41 26 65 72 65h37l23 122h-88v31c0 41 26 66 72 66h35
l36 184h31c42 0 64 -21 64 -61c0 -6 -1 -12 -2 -19l-20 -104h105l36 184h31c40 0 64 -22 64 -59c0 -7 0 -15 -2 -24l-19 -101h84v-32zM362 404h-106l-23 -122h105z" />
    <glyph glyph-name="dollar" unicode="$" 
d="M533 204c0 -128 -109 -197 -187 -203v-137h-32c-41 0 -60 19 -60 57v79c-139 6 -182 68 -182 138v46h2c38 -37 106 -71 190 -71c100 0 133 27 133 82c0 50 -25 68 -160 91c-102 17 -180 64 -180 170c0 119 97 191 197 204v134h39c36 0 53 -19 53 -56v-75
c108 -7 169 -51 169 -123v-53h-5c-41 43 -102 62 -177 62c-109 0 -142 -32 -142 -79c0 -45 18 -60 158 -85c118 -21 184 -85 184 -181z" />
    <glyph glyph-name="percent" unicode="%" horiz-adv-x="993" 
d="M400 477c0 -129 -64 -231 -183 -231c-110 0 -174 101 -174 215c0 129 64 231 183 231c110 0 174 -101 174 -215zM672 602l-285 -602h-25c-32 0 -55 17 -55 52c0 19 4 31 16 55l275 576h34c25 0 47 -14 47 -43c0 -13 -2 -27 -7 -38zM953 221c0 -129 -64 -231 -183 -231
c-110 0 -174 102 -174 216c0 129 63 230 182 230c110 0 175 -101 175 -215zM289 461c0 86 -22 135 -71 135c-43 0 -64 -49 -64 -119c0 -85 21 -135 71 -135c43 0 64 49 64 119zM846 209c0 86 -22 134 -71 134c-43 0 -65 -49 -65 -119c0 -85 22 -134 72 -134
c43 0 64 49 64 119z" />
    <glyph glyph-name="ampersand" unicode="&#x26;" horiz-adv-x="672" 
d="M654 63c0 -50 -19 -76 -66 -76c-30 0 -66 6 -101 40l-35 34c-28 -31 -83 -73 -186 -73c-151 0 -229 85 -229 199c0 83 66 154 133 192c-33 38 -64 86 -64 132c0 90 68 176 198 176c102 0 172 -60 172 -158c0 -68 -58 -130 -145 -179c29 -37 86 -104 123 -140
c35 39 68 112 70 175h27c30 0 56 -19 56 -70c0 -56 -47 -132 -81 -178l20 -19c45 -43 74 -53 108 -55zM362 526c0 42 -24 64 -64 64c-45 0 -69 -25 -69 -72c0 -37 26 -65 46 -94c59 34 87 63 87 102zM382 133c-38 37 -118 124 -149 168c-34 -20 -68 -56 -68 -100
c0 -78 43 -107 118 -107c35 0 76 15 99 39z" />
    <glyph glyph-name="quoteright" unicode="&#x2019;" horiz-adv-x="260" 
d="M215 607c0 -88 -63 -172 -140 -172h-27v6c27 25 46 74 46 103c0 19 -5 34 -16 45c-15 15 -27 27 -27 58c0 41 33 74 78 74c52 0 86 -40 86 -114z" />
    <glyph glyph-name="parenleft" unicode="(" horiz-adv-x="354" 
d="M349 -170h-69c-22 0 -57 14 -81 33c-66 52 -150 219 -150 404c0 183 66 339 145 415c23 22 64 38 89 38h67v-5c-90 -95 -164 -230 -164 -428c0 -215 75 -372 163 -452v-5z" />
    <glyph glyph-name="parenright" unicode=")" horiz-adv-x="354" 
d="M5 719h69c22 0 57 -14 81 -33c66 -52 150 -219 150 -404c0 -183 -66 -339 -145 -415c-23 -22 -64 -38 -89 -38h-67v5c90 95 164 230 164 428c0 215 -75 372 -163 452v5z" />
    <glyph glyph-name="asterisk" unicode="*" horiz-adv-x="515" 
d="M398 479c-27 0 -56 -2 -76 -5c42 -51 41 -87 118 -107c-20 -43 -38 -72 -74 -72c-22 0 -47 7 -64 33c-22 33 -30 72 -47 108c-43 -57 -55 -97 -55 -149c-67 3 -102 27 -102 73c0 63 56 88 96 124c-39 14 -65 18 -97 18c-16 0 -34 -4 -68 -15c4 66 27 121 84 121
c54 0 76 -29 116 -54c1 8 1 14 1 21c0 44 -4 95 -42 142c17 5 43 15 62 15c46 0 85 -21 85 -73c0 -40 -19 -76 -29 -114c48 9 101 48 135 99c27 -39 43 -65 43 -96c0 -51 -44 -69 -86 -69z" />
    <glyph glyph-name="plus" unicode="+" 
d="M558 286c0 -32 -28 -65 -80 -65h-127v-209h-47c-32 0 -66 28 -66 80v129h-211v55c0 28 26 58 65 58h146v189h56c28 0 57 -26 57 -65v-124h207v-48z" />
    <glyph glyph-name="comma" unicode="," horiz-adv-x="281" 
d="M219 34c0 -88 -63 -172 -140 -172h-27v6c27 25 46 74 46 103c0 19 -5 34 -16 45c-15 15 -27 27 -27 58c0 41 33 74 78 74c52 0 86 -40 86 -114z" />
    <glyph glyph-name="hyphen" unicode="-" horiz-adv-x="372" 
d="M333 354v-53c0 -35 -24 -55 -65 -55h-230v51c0 33 23 57 62 57h233z" />
    <glyph glyph-name="period" unicode="." horiz-adv-x="280" 
d="M227 86c0 -47 -39 -86 -86 -86s-86 39 -86 86s39 86 86 86s86 -39 86 -86z" />
    <glyph glyph-name="slash" unicode="/" horiz-adv-x="456" 
d="M412 634l-299 -634h-25c-27 0 -51 19 -51 55c0 14 5 36 13 52l288 613h35c25 0 46 -14 46 -45c0 -10 -2 -30 -7 -41z" />
    <glyph glyph-name="zero" unicode="0" 
d="M553 357c0 -256 -110 -369 -259 -369c-151 0 -258 118 -258 342c0 249 105 367 269 367c157 0 248 -133 248 -340zM171 358c0 -188 47 -250 134 -250c66 0 113 67 113 218c0 188 -41 251 -124 251c-68 0 -123 -61 -123 -219z" />
    <glyph glyph-name="one" unicode="1" horiz-adv-x="411" 
d="M321 0h-54c-47 0 -83 30 -83 89v454l-66 -24c-67 -24 -110 -2 -117 40l-6 35l124 55c69 30 92 36 129 36c44 0 73 -37 73 -73v-612z" />
    <glyph glyph-name="two" unicode="2" 
d="M532 67c0 -43 -37 -67 -92 -67h-317c-39 0 -69 30 -69 68c0 45 23 95 129 183l160 133c37 30 47 62 47 92c0 62 -43 101 -119 101c-100 0 -157 -28 -202 -89h-5v49c0 80 61 160 232 160c132 0 229 -93 229 -203c0 -102 -39 -147 -143 -229l-106 -83
c-23 -18 -54 -47 -65 -65h321v-50z" />
    <glyph glyph-name="three" unicode="3" 
d="M523 203c0 -129 -90 -215 -269 -215c-108 0 -197 45 -197 138v54h5c42 -45 107 -74 199 -74c90 0 127 41 127 93c0 66 -44 90 -129 92c-60 1 -83 18 -83 52v45c19 2 45 3 74 4c101 4 134 41 134 90c0 61 -42 98 -134 98c-76 0 -147 -26 -183 -73h-5v58
c0 56 72 132 212 132c149 0 245 -76 245 -191c0 -98 -53 -144 -123 -159c60 -13 127 -76 127 -144z" />
    <glyph glyph-name="four" unicode="4" 
d="M565 221c0 -35 -19 -59 -57 -59h-51v-162h-53c-47 0 -80 30 -80 88v74h-232c-45 0 -75 31 -75 62c0 38 9 58 18 75c47 86 195 309 290 386h50c48 0 82 -32 82 -96v-314h108v-54zM324 275v271c-47 -62 -141 -198 -181 -271h181z" />
    <glyph glyph-name="five" unicode="5" 
d="M534 222c0 -147 -104 -234 -264 -234c-146 0 -205 52 -205 129v51h5c46 -40 95 -60 186 -60c100 0 138 38 138 106c0 70 -52 98 -162 98c-55 0 -112 -11 -160 -22v273c0 79 28 122 109 122h330v-36c0 -50 -32 -83 -93 -83h-212v-153c23 3 61 6 90 6
c131 0 238 -73 238 -197z" />
    <glyph glyph-name="six" unicode="6" 
d="M547 232c0 -111 -67 -244 -254 -244c-136 0 -245 99 -245 324c0 258 124 385 309 385c92 0 155 -55 155 -125v-41h-6c-27 28 -65 50 -145 50c-125 0 -174 -85 -178 -222c24 52 81 86 146 86c117 0 218 -75 218 -213zM188 233c0 -70 39 -130 113 -130c76 0 111 40 111 118
c0 76 -50 110 -109 110c-76 0 -115 -45 -115 -98z" />
    <glyph glyph-name="seven" unicode="7" horiz-adv-x="222" 
 />
    <glyph glyph-name="eight" unicode="8" 
d="M539 195c0 -118 -65 -207 -251 -207c-146 0 -235 80 -235 197c0 73 58 143 118 161c-58 20 -114 65 -114 148c0 125 105 203 244 203c141 0 235 -85 235 -193c0 -92 -57 -133 -115 -150c56 -19 118 -80 118 -159zM292 578c-63 0 -98 -39 -98 -86c0 -51 32 -88 106 -88
c64 0 99 37 99 84c0 55 -33 90 -107 90zM404 199c0 55 -38 97 -112 97c-55 0 -102 -40 -102 -89c0 -64 30 -100 110 -100c72 0 104 41 104 92z" />
    <glyph glyph-name="nine" unicode="9" horiz-adv-x="580" 
d="M538 359c0 -253 -107 -371 -272 -371c-111 0 -190 47 -190 126v49h5c32 -31 91 -57 178 -57c93 0 137 59 142 212c-18 -52 -63 -88 -126 -88c-143 0 -236 86 -236 214c0 147 89 253 258 253c146 0 241 -94 241 -338zM400 445c0 95 -43 137 -114 137
c-70 0 -109 -51 -109 -122c0 -81 43 -116 107 -116c73 0 116 41 116 101z" />
    <glyph glyph-name="colon" unicode=":" horiz-adv-x="333" 
d="M253 454c0 -47 -39 -86 -86 -86s-86 39 -86 86c0 48 39 86 86 86s86 -38 86 -86zM253 86c0 -47 -39 -86 -86 -86s-86 39 -86 86s39 86 86 86s86 -39 86 -86z" />
    <glyph glyph-name="semicolon" unicode=";" horiz-adv-x="333" 
d="M256 453c0 -47 -39 -86 -86 -86s-86 39 -86 86c0 48 39 86 86 86s86 -38 86 -86zM248 34c0 -88 -63 -172 -140 -172h-27v6c27 25 46 74 46 103c0 19 -5 34 -16 45c-15 15 -27 27 -27 58c0 41 33 74 78 74c52 0 86 -40 86 -114z" />
    <glyph glyph-name="less" unicode="&#x3c;" 
d="M521 494c0 -40 -21 -73 -76 -94c-48 -18 -189 -78 -254 -109c71 -39 239 -116 326 -151v-30c0 -40 -37 -52 -73 -52c-13 0 -41 10 -54 15c-91 35 -260 121 -354 189v16c0 34 20 56 57 78c78 46 308 148 428 185v-47z" />
    <glyph glyph-name="equal" unicode="=" 
d="M457 356h-401v47c0 29 25 53 68 53h401v-48c0 -25 -31 -52 -68 -52zM457 163h-401v47c0 29 25 52 68 52h401v-47c0 -30 -31 -52 -68 -52z" />
    <glyph glyph-name="greater" unicode="&#x3e;" 
d="M62 101c0 40 21 73 76 94c48 18 190 78 254 109c-70 39 -239 116 -326 151v30c0 40 37 52 73 52c14 0 42 -10 54 -15c92 -35 260 -121 354 -189v-16c0 -34 -20 -56 -57 -78c-78 -46 -308 -148 -428 -185v47z" />
    <glyph glyph-name="question" unicode="?" horiz-adv-x="472" 
d="M439 529c0 -51 -17 -87 -70 -132l-80 -68c-38 -32 -43 -48 -43 -82v-36h-47c-30 0 -61 26 -61 59c0 49 16 86 65 126l71 58c23 19 30 40 30 60c0 48 -33 75 -100 75c-76 0 -132 -25 -163 -67h-5v47c0 68 58 139 189 139c139 0 214 -82 214 -179zM297 86
c0 -47 -39 -86 -86 -86s-86 39 -86 86s39 86 86 86s86 -39 86 -86z" />
    <glyph glyph-name="at" unicode="@" horiz-adv-x="757" 
d="M728 407c0 -150 -85 -252 -199 -252c-43 0 -75 22 -88 64c-32 -41 -65 -64 -115 -64c-61 0 -125 66 -125 159c0 127 90 230 215 230c57 0 133 -46 133 -89c0 -31 -8 -61 -13 -87c-7 -33 -10 -64 -10 -85c0 -31 10 -39 21 -39c33 -1 86 46 86 159c0 125 -79 218 -225 218
c-147 0 -274 -115 -274 -300c0 -158 100 -246 240 -246c50 0 112 3 170 32v-33c0 -29 -15 -58 -54 -69c-26 -7 -68 -13 -134 -13c-170 0 -320 121 -320 321c0 207 151 390 382 390c182 0 310 -125 310 -296zM446 429c-10 9 -23 15 -45 15c-41 0 -84 -49 -84 -120
c0 -56 23 -66 38 -66c33 0 52 19 66 57c10 28 18 66 25 114z" />
    <glyph glyph-name="A" unicode="A" horiz-adv-x="622" 
d="M612 0h-56c-57 0 -87 33 -92 66c-6 45 -12 80 -19 109h-273c-14 -58 -26 -117 -36 -175h-53c-45 0 -63 24 -63 66c0 99 128 502 233 619h56c55 0 92 -30 111 -63c62 -111 165 -406 192 -622zM414 284c-23 96 -70 211 -106 275c-40 -71 -83 -180 -106 -275h212z" />
    <glyph glyph-name="B" unicode="B" horiz-adv-x="605" 
d="M564 212c0 -138 -110 -215 -235 -215h-74c-128 0 -191 56 -191 163v497c33 12 124 31 181 31h83c131 0 224 -69 224 -181c0 -76 -41 -125 -109 -145c69 -19 121 -90 121 -150zM415 495c0 60 -55 79 -106 79h-51c-17 0 -40 -4 -59 -7v-155h105c61 0 111 24 111 83z
M426 208c0 74 -37 98 -117 98h-109v-141c0 -24 26 -43 60 -43h56c74 0 110 34 110 86z" />
    <glyph glyph-name="C" unicode="C" horiz-adv-x="598" 
d="M586 502h-5c-43 56 -129 74 -188 74c-122 0 -213 -88 -213 -221c0 -161 89 -242 218 -242c68 0 144 27 181 66h5v-51c0 -94 -109 -134 -204 -134c-182 0 -338 136 -338 341c0 211 141 360 350 360c112 0 194 -46 194 -140v-53z" />
    <glyph glyph-name="D" unicode="D" horiz-adv-x="665" 
d="M627 353c0 -207 -136 -359 -315 -359h-57c-116 0 -190 46 -190 152v515c33 13 117 26 169 26h71c157 0 322 -105 322 -334zM487 334c0 153 -85 238 -203 238h-30c-17 0 -52 -7 -52 -7v-393c0 -40 18 -58 69 -58h23c113 0 193 96 193 220z" />
    <glyph glyph-name="E" unicode="E" horiz-adv-x="560" 
d="M538 128l-1 -48c-1 -55 -29 -85 -149 -85h-73c-167 0 -255 92 -255 267v127c0 65 5 138 13 193c11 82 49 103 105 103h358v-46c0 -48 -29 -72 -92 -72h-235c-7 -50 -10 -117 -10 -160h264v-49c0 -45 -28 -63 -83 -63h-181v-40c0 -119 39 -142 145 -142h44
c50 0 101 4 150 15z" />
    <glyph glyph-name="F" unicode="F" horiz-adv-x="491" 
d="M486 642c0 -32 -24 -71 -78 -71h-211v-170h247v-41c0 -44 -35 -68 -66 -68h-176v-292h-57c-50 0 -80 26 -80 80v499c0 85 34 106 114 106h307v-43z" />
    <glyph glyph-name="G" unicode="G" horiz-adv-x="654" 
d="M612 159c0 -103 -57 -171 -228 -171c-182 0 -342 132 -342 346c0 202 141 363 375 363c128 0 184 -71 184 -135v-47h-5c-46 39 -123 58 -195 58c-127 0 -218 -93 -218 -220c0 -173 94 -241 217 -241c66 0 82 25 82 65v55c0 54 -10 100 -10 100h70c38 0 70 -33 70 -63
v-110z" />
    <glyph glyph-name="H" unicode="H" horiz-adv-x="677" 
d="M612 0h-55c-40 0 -80 32 -80 92v202h-276v-294h-53c-46 0 -83 32 -83 92v593h67c39 0 68 -33 68 -72v-204h277v276h62c35 0 73 -28 73 -72v-613z" />
    <glyph glyph-name="I" unicode="I" horiz-adv-x="272" 
d="M203 0h-52c-40 0 -83 31 -83 91v594h62c35 0 73 -29 73 -73v-612z" />
    <glyph glyph-name="J" unicode="J" horiz-adv-x="390" 
d="M335 184c0 -112 -63 -196 -204 -196c-75 0 -127 37 -127 79v63h5c22 -13 62 -22 103 -22c62 0 85 27 85 82v495h46c61 0 92 -32 92 -93v-408z" />
    <glyph glyph-name="K" unicode="K" horiz-adv-x="609" 
d="M109 685c66 0 91 -44 91 -92v-214c61 90 122 184 197 264c36 39 51 42 104 42h94v-5c-53 -54 -189 -217 -258 -315c64 -93 126 -197 213 -271c20 -16 34 -23 54 -28c-12 -49 -33 -69 -88 -69c-33 0 -72 17 -96 44c-84 97 -152 196 -220 305v-346h-45c-66 0 -90 46 -90 93
v592h44z" />
    <glyph glyph-name="L" unicode="L" horiz-adv-x="521" 
d="M516 93c0 -60 -30 -99 -143 -99h-53c-161 0 -250 90 -250 254v437h56c56 0 85 -32 85 -100v-328c0 -104 24 -142 127 -142h35c65 0 118 15 143 25v-47z" />
    <glyph glyph-name="M" unicode="M" horiz-adv-x="901" 
d="M847 0h-52c-52 0 -88 29 -88 91c0 87 -15 338 -26 406c-9 -22 -22 -50 -32 -81l-96 -294c-16 -49 -37 -95 -56 -122h-37c-45 0 -85 35 -110 109l-98 289c-12 35 -28 76 -38 100c-18 -98 -30 -373 -30 -498h-48c-51 0 -86 33 -86 91c0 153 30 458 55 594h29
c95 0 162 -43 188 -116l95 -268c21 -58 33 -99 39 -130c5 26 12 47 19 70l79 243c35 109 79 178 107 201h16c76 0 126 -48 137 -142c13 -108 33 -406 33 -543z" />
    <glyph glyph-name="N" unicode="N" horiz-adv-x="688" 
d="M623 0h-54c-53 0 -111 16 -196 181l-125 243c-19 38 -34 64 -46 80v-504h-54c-40 0 -83 30 -83 90v595h68c90 0 148 -48 194 -140l120 -240c14 -28 30 -69 40 -92v472h61c35 0 75 -35 75 -79v-606z" />
    <glyph glyph-name="O" unicode="O" horiz-adv-x="725" 
d="M683 353c0 -208 -119 -365 -328 -365c-173 0 -313 139 -313 344c0 213 120 365 328 365c166 0 313 -127 313 -344zM542 334c0 161 -69 242 -185 242c-101 0 -174 -83 -174 -223c0 -165 60 -246 185 -246c106 0 174 76 174 227z" />
    <glyph glyph-name="P" unicode="P" horiz-adv-x="563" 
d="M548 477c0 -145 -100 -234 -231 -234c-48 0 -87 8 -115 23v-266h-54c-38 0 -83 25 -83 98v560c38 14 129 32 178 32h77c133 0 228 -76 228 -213zM407 465c0 78 -32 109 -104 109h-44c-17 0 -41 -6 -57 -9v-194c24 -7 62 -12 97 -12c70 0 108 40 108 106z" />
    <glyph glyph-name="Q" unicode="Q" horiz-adv-x="735" 
d="M297 -7c-115 23 -255 135 -255 340c0 202 104 364 333 364c158 0 308 -125 308 -344c0 -175 -105 -295 -194 -313c52 -17 152 -26 218 -26v-44c0 -40 -19 -66 -74 -66c-101 0 -251 41 -336 89zM542 336c0 157 -58 240 -184 240c-109 0 -175 -90 -175 -223
c0 -167 71 -247 192 -247c104 0 167 101 167 230z" />
    <glyph glyph-name="R" unicode="R" horiz-adv-x="603" 
d="M583 17c-16 -17 -28 -22 -66 -22c-44 0 -82 17 -100 61l-51 124c-31 75 -60 80 -96 86c-30 5 -54 9 -68 9v-275h-44c-61 0 -93 37 -93 92v574c29 11 125 25 176 25h76c136 0 225 -82 225 -197c0 -93 -61 -170 -141 -182c37 -15 68 -56 85 -96l55 -128
c17 -40 34 -59 42 -71zM301 573h-38c-13 0 -46 -3 -61 -7v-181c30 -6 61 -6 98 -6c56 0 103 32 103 93c0 83 -42 101 -102 101z" />
    <glyph glyph-name="S" unicode="S" horiz-adv-x="572" 
d="M527 212c0 -135 -92 -224 -258 -224c-138 0 -209 54 -209 135v61h3c46 -41 108 -74 191 -74c103 0 136 35 136 90c0 47 -18 68 -163 99c-116 25 -182 83 -182 176c0 114 96 222 257 222c160 0 206 -68 206 -125v-63h-4c-42 45 -103 67 -178 67c-106 0 -145 -35 -145 -88
c0 -41 32 -66 160 -93c125 -26 186 -91 186 -183z" />
    <glyph glyph-name="T" unicode="T" horiz-adv-x="555" 
d="M548 642c0 -33 -37 -77 -82 -77h-126v-565h-55c-48 0 -83 31 -83 92v473h-197v45c0 33 27 75 83 75h460v-43z" />
    <glyph glyph-name="U" unicode="U" horiz-adv-x="663" 
d="M612 309c0 -201 -93 -321 -289 -321c-166 0 -273 111 -273 309v388h53c43 0 85 -31 85 -126v-253c0 -128 43 -190 149 -190c97 0 137 64 137 185v384h52c52 0 86 -38 86 -122v-254z" />
    <glyph glyph-name="V" unicode="V" horiz-adv-x="618" 
d="M507 316c-41 -100 -89 -212 -158 -321h-12c-41 0 -75 16 -99 55c-108 176 -198 417 -229 635h79c51 0 80 -34 87 -75c22 -126 57 -252 138 -424c73 158 127 326 153 499h76c33 0 59 -21 59 -59s-49 -201 -94 -310z" />
    <glyph glyph-name="W" unicode="W" horiz-adv-x="953" 
d="M867 347c-34 -107 -76 -218 -154 -353h-33c-15 0 -43 2 -66 43c-50 89 -105 234 -137 380c-33 -149 -89 -305 -160 -423h-32c-15 0 -46 2 -69 43c-101 179 -179 427 -207 648h79c48 0 76 -42 82 -78c19 -117 49 -244 113 -397c62 147 112 351 131 449h45
c45 0 93 -20 107 -91c23 -115 58 -230 113 -358c57 139 106 311 128 474h71c32 0 60 -23 60 -64c0 -37 -48 -201 -71 -273z" />
    <glyph glyph-name="X" unicode="X" horiz-adv-x="684" 
d="M669 35c-21 -25 -43 -43 -98 -43c-63 0 -109 33 -177 133l-86 126c-96 -114 -128 -185 -146 -251h-67c-35 0 -56 25 -56 53s4 49 15 75c15 37 45 89 114 163l65 70l-81 113c-73 102 -110 165 -122 211h94c31 0 69 -12 139 -116l83 -124c114 132 142 181 157 241h52
c43 0 61 -29 61 -69c0 -49 -75 -147 -194 -282l91 -133c54 -79 113 -134 156 -167z" />
    <glyph glyph-name="Y" unicode="Y" horiz-adv-x="571" 
d="M556 632c0 -53 -140 -268 -202 -340v-292h-57c-40 0 -83 30 -83 90v202c-80 104 -166 266 -209 393h64c54 0 83 -27 92 -48c34 -80 88 -178 131 -239c44 61 117 184 148 287h60c36 0 56 -21 56 -53z" />
    <glyph glyph-name="Z" unicode="Z" horiz-adv-x="587" 
d="M547 71c0 -35 -28 -71 -78 -71h-343c-49 0 -86 31 -86 86c0 59 46 118 103 182l170 192c33 37 65 77 74 105h-347v37c0 54 29 83 102 83h311c66 0 93 -33 93 -90c0 -42 -33 -102 -83 -158l-169 -189c-46 -52 -85 -98 -92 -128h345v-49z" />
    <glyph glyph-name="bracketleft" unicode="[" horiz-adv-x="320" 
d="M309 -170h-230v890h171c37 0 59 -22 59 -57v-32h-128v-712h73c31 0 55 -20 55 -56v-33z" />
    <glyph glyph-name="backslash" unicode="\" horiz-adv-x="427" 
d="M427 0h-55c-38 0 -92 30 -117 89l-251 596h65c33 0 81 -27 99 -70z" />
    <glyph glyph-name="bracketright" unicode="]" horiz-adv-x="320" 
d="M18 720h230v-890h-171c-37 0 -59 22 -59 57v32h128v712h-73c-31 0 -55 20 -55 56v33z" />
    <glyph glyph-name="asciicircum" unicode="^" horiz-adv-x="501" 
d="M441 418c-47 -13 -99 9 -111 43c-11 31 -55 111 -84 155c-32 -48 -91 -140 -117 -199h-18c-31 0 -51 16 -51 39c0 8 8 22 12 30c26 57 92 166 153 234h21c22 0 40 -20 53 -36c37 -48 115 -185 142 -266z" />
    <glyph glyph-name="underscore" unicode="_" horiz-adv-x="565" 
d="M565 -285h-565v85h565v-85z" />
    <glyph glyph-name="quoteleft" unicode="&#x2018;" horiz-adv-x="260" 
d="M46 570c0 88 63 172 140 172h27v-6c-27 -25 -46 -74 -46 -103c0 -19 5 -34 16 -45c15 -15 27 -27 27 -58c0 -41 -33 -74 -78 -74c-52 0 -86 40 -86 114z" />
    <glyph glyph-name="a" unicode="a" horiz-adv-x="529" 
d="M488 184c0 -114 -84 -193 -204 -193h-27c-128 0 -216 72 -216 171c0 96 70 169 268 169h47v7c0 76 -36 99 -116 99c-97 0 -151 -37 -171 -62h-5v43c0 60 54 132 196 132c120 0 228 -56 228 -242v-124zM357 183v52h-48c-102 0 -131 -24 -131 -68c0 -42 34 -67 93 -67
c58 0 86 28 86 83z" />
    <glyph glyph-name="b" unicode="b" horiz-adv-x="631" 
d="M589 281c0 -162 -104 -293 -268 -293c-138 0 -254 113 -254 275v457h46c52 0 88 -30 88 -93v-157c27 39 73 82 146 82c137 0 242 -112 242 -271zM450 258c0 131 -47 175 -129 175c-68 0 -119 -67 -119 -151c0 -124 53 -175 133 -175c67 0 115 64 115 151z" />
    <glyph glyph-name="c" unicode="c" horiz-adv-x="510" 
d="M478 366h-5c-18 31 -69 56 -146 56c-78 0 -147 -63 -147 -143c0 -98 58 -165 149 -165c77 0 123 25 142 50h5v-62c0 -65 -63 -112 -160 -112c-148 0 -276 115 -276 269s107 286 291 286c86 0 147 -52 147 -116v-63z" />
    <glyph glyph-name="d" unicode="d" horiz-adv-x="615" 
d="M550 249c0 -157 -74 -261 -259 -261c-142 0 -251 124 -251 272c0 177 86 292 243 292c54 0 113 -38 134 -85v253h41c64 0 92 -37 92 -91v-380zM415 255c0 135 -59 184 -131 184c-68 0 -112 -66 -112 -153c0 -112 58 -185 135 -185c75 0 108 56 108 154z" />
    <glyph glyph-name="e" unicode="e" horiz-adv-x="558" 
d="M520 343c0 -99 -75 -131 -253 -131h-88c10 -68 72 -111 151 -111c56 0 122 11 165 51h5v-42c0 -69 -47 -122 -195 -122c-134 0 -265 106 -265 271c0 180 110 293 264 293c112 0 216 -80 216 -209zM394 359c0 54 -40 81 -102 81c-65 0 -110 -53 -113 -115l-1 -18h60
c127 0 156 14 156 52z" />
    <glyph glyph-name="f" unicode="f" horiz-adv-x="368" 
d="M378 600h-4c-21 7 -45 12 -78 12c-55 0 -96 -19 -96 -91v-48h154v-37c0 -48 -51 -76 -96 -76h-58v-360h-54c-43 0 -81 33 -81 80v452c0 76 53 198 210 198c58 0 103 -32 103 -85v-45z" />
    <glyph glyph-name="g" unicode="g" horiz-adv-x="606" 
d="M537 224c0 -18 1 -49 2 -73c1 -22 2 -51 2 -69c0 -135 -90 -256 -264 -256c-111 0 -187 54 -187 118v61h6c32 -34 94 -58 171 -58c97 0 141 46 141 124c0 8 0 19 -1 28c0 8 -1 22 -1 27v13c-11 -39 -62 -80 -139 -80c-131 0 -224 91 -224 218c0 152 100 275 274 275
c134 0 220 -98 220 -236v-92zM302 433c-69 0 -121 -58 -121 -139c0 -70 43 -122 107 -122c67 0 115 50 115 136c0 84 -42 125 -101 125z" />
    <glyph glyph-name="h" unicode="h" horiz-adv-x="610" 
d="M545 0h-44c-56 0 -91 32 -91 90v220c0 88 -48 123 -107 123c-42 0 -97 -32 -97 -127v-306h-44c-63 0 -92 35 -92 90v630h42c64 0 95 -36 95 -86v-154c20 32 66 72 117 72c139 0 221 -83 221 -236v-316z" />
    <glyph glyph-name="i" unicode="i" horiz-adv-x="333" 
d="M227 657c0 -43 -36 -79 -79 -79s-78 36 -78 79s35 78 78 78s79 -35 79 -78zM323 76c0 -58 -23 -81 -80 -81c-104 0 -161 59 -161 168v365h38c60 0 96 -32 96 -100v-252c0 -54 23 -71 82 -71h25v-29z" />
    <glyph glyph-name="j" unicode="j" horiz-adv-x="303" 
d="M238 659c0 -43 -34 -79 -77 -79s-79 36 -79 79s36 78 79 78s77 -35 77 -78zM225 4c0 -113 -77 -179 -182 -179c-53 0 -87 28 -87 61v49c19 0 65 4 65 4c37 2 70 26 70 78v511h38c60 0 96 -32 96 -93v-431z" />
    <glyph glyph-name="k" unicode="k" horiz-adv-x="572" 
d="M113 720c65 0 92 -37 92 -89v-322c52 68 103 137 165 196c32 30 64 35 107 35h77v-5c-38 -32 -163 -174 -219 -245c43 -53 85 -108 133 -157c49 -49 71 -59 104 -70c-14 -43 -36 -66 -91 -66c-30 0 -65 14 -88 37c-69 71 -129 151 -188 230v-263l-43 -1
c-62 -1 -92 32 -92 95v625h43z" />
    <glyph glyph-name="l" unicode="l" horiz-adv-x="326" 
d="M331 76c0 -58 -31 -81 -90 -81c-111 0 -171 59 -171 168v557h38c67 0 96 -39 96 -90v-454c0 -54 28 -71 91 -71h36v-29z" />
    <glyph glyph-name="m" unicode="m" horiz-adv-x="914" 
d="M849 0h-33c-73 0 -102 34 -102 98v208c0 89 -40 127 -99 127c-54 0 -91 -38 -91 -112v-321h-36c-59 0 -98 34 -98 98v208c0 89 -41 127 -100 127c-52 0 -91 -41 -91 -115v-318h-36c-55 0 -97 36 -97 98v209c0 147 77 245 240 245c70 0 125 -32 164 -84
c31 50 90 84 155 84c124 0 224 -75 224 -228v-324z" />
    <glyph glyph-name="n" unicode="n" horiz-adv-x="605" 
d="M540 0h-36c-60 0 -98 38 -98 88v214c0 91 -40 131 -109 131c-58 0 -98 -44 -98 -121v-312h-40c-57 0 -94 38 -94 88v233c0 114 75 231 243 231c127 0 232 -85 232 -238v-314z" />
    <glyph glyph-name="o" unicode="o" horiz-adv-x="602" 
d="M40 260c0 162 93 292 267 292c162 0 255 -130 255 -273c0 -162 -93 -291 -267 -291c-162 0 -255 129 -255 272zM423 260c0 108 -40 172 -128 172c-77 0 -116 -64 -116 -153c0 -107 39 -171 128 -171c78 0 116 64 116 152z" />
    <glyph glyph-name="p" unicode="p" horiz-adv-x="620" 
d="M580 286c0 -173 -86 -298 -243 -298c-60 0 -109 34 -136 80v-238h-42c-48 0 -94 35 -94 93v326c0 179 80 303 270 303c143 0 245 -130 245 -266zM442 251c0 127 -42 182 -128 182c-74 0 -115 -64 -115 -157c0 -108 53 -169 133 -169c65 0 110 58 110 144z" />
    <glyph glyph-name="q" unicode="q" horiz-adv-x="619" 
d="M314 552c155 0 240 -103 240 -272v-450l-44 1c-56 1 -89 28 -89 89v138c-22 -44 -77 -70 -131 -70c-135 0 -250 107 -250 266c0 170 110 298 274 298zM297 433c-61 0 -123 -57 -123 -155c0 -111 47 -171 130 -171c75 0 117 45 117 157c0 115 -43 169 -124 169z" />
    <glyph glyph-name="r" unicode="r" horiz-adv-x="386" 
d="M376 409h-5c-20 8 -43 16 -78 16c-60 0 -93 -33 -93 -115v-310h-37c-60 0 -98 30 -98 86v248c0 108 57 211 199 211c83 0 112 -47 112 -88v-48z" />
    <glyph glyph-name="s" unicode="s" horiz-adv-x="492" 
d="M453 170c0 -114 -80 -182 -225 -182c-99 0 -173 51 -173 106v61h5c29 -27 98 -51 162 -51c66 0 98 19 98 59c0 31 -19 46 -112 59c-114 16 -169 61 -169 143c0 101 91 187 229 187c122 0 172 -63 172 -115v-51h-5c-28 28 -90 50 -154 50c-82 0 -108 -25 -108 -60
c0 -27 16 -38 108 -53c112 -18 172 -67 172 -153z" />
    <glyph glyph-name="t" unicode="t" horiz-adv-x="405" 
d="M70 518c0 53 10 73 39 107c18 21 42 37 63 37h31v-122h187v-55c0 -28 -25 -64 -80 -64h-107v-211c0 -70 31 -97 85 -97c43 0 76 6 97 19h5v-48c0 -55 -40 -90 -118 -90c-136 0 -202 74 -202 200v324z" />
    <glyph glyph-name="u" unicode="u" horiz-adv-x="604" 
d="M539 242c0 -168 -79 -254 -236 -254c-133 0 -238 88 -238 245v307h25c77 0 111 -33 111 -96v-198c0 -99 48 -139 109 -139c55 0 94 38 94 130v303h24c78 0 111 -33 111 -96v-202z" />
    <glyph glyph-name="v" unicode="v" horiz-adv-x="517" 
d="M502 476c0 -16 -13 -81 -46 -171c-36 -99 -96 -229 -156 -311h-26c-40 0 -61 14 -88 54c-73 111 -165 346 -177 492h72c46 0 75 -35 80 -64c19 -100 46 -204 103 -315c51 101 98 244 118 379h57c46 0 63 -20 63 -64z" />
    <glyph glyph-name="w" unicode="w" horiz-adv-x="810" 
d="M795 485c0 -21 -22 -114 -62 -226c-40 -114 -90 -213 -125 -265h-22c-42 0 -74 39 -92 72c-33 60 -74 160 -89 242c-17 -82 -80 -249 -128 -314h-18c-40 0 -78 40 -96 72c-78 138 -130 294 -154 474h72c46 0 73 -35 78 -65c16 -92 41 -194 86 -292c49 107 76 223 102 337
h44c41 0 82 -17 95 -76c16 -73 49 -185 87 -261c51 113 80 238 101 360h56c38 0 65 -17 65 -58z" />
    <glyph glyph-name="x" unicode="x" horiz-adv-x="554" 
d="M542 59c0 -38 -29 -67 -88 -67c-57 0 -96 32 -143 103l-59 89c-34 -39 -56 -69 -71 -95c-18 -31 -25 -58 -30 -91h-61c-31 0 -55 21 -55 48c0 64 37 117 104 189l44 47l-57 82c-60 87 -94 135 -96 176h80c26 0 59 -17 119 -102l55 -78c86 97 100 125 109 179h51
c39 0 55 -27 55 -57c0 -24 -20 -66 -63 -122c-22 -29 -50 -62 -82 -98l59 -86c58 -85 82 -107 129 -117z" />
    <glyph glyph-name="y" unicode="y" horiz-adv-x="508" 
d="M374 116c-100 -236 -153 -291 -250 -291c-50 0 -94 33 -94 83v26l76 5c49 3 66 23 95 99c-71 107 -173 375 -191 502h71c37 0 71 -25 78 -63c19 -104 59 -216 108 -311c44 101 93 264 105 374h58c43 0 63 -19 63 -63c0 -57 -94 -303 -119 -361z" />
    <glyph glyph-name="z" unicode="z" horiz-adv-x="505" 
d="M465 63c0 -33 -35 -63 -69 -63h-263c-62 0 -92 29 -92 71c0 41 31 93 82 148l136 148c16 18 37 43 46 61h-265v41c0 40 29 71 89 71h245c63 0 84 -38 84 -69c0 -42 -22 -92 -69 -143l-135 -146c-19 -21 -39 -45 -51 -67h262v-52z" />
    <glyph glyph-name="braceleft" unicode="{" horiz-adv-x="370" 
d="M129 396c0 25 -3 49 -6 76s-1 62 -1 88c0 92 54 160 153 160h27c26 0 59 -16 59 -50v-40h-75c-45 0 -61 -46 -61 -93c0 -19 -2 -50 1 -72s5 -39 5 -65c0 -75 -32 -111 -89 -121v-2c57 -9 87 -45 87 -120c0 -26 0 -54 -3 -76s-1 -51 -1 -70c0 -46 17 -91 65 -91h17
c36 0 53 -21 53 -50v-40h-84c-97 0 -154 66 -154 158c0 26 -2 57 1 85c3 27 4 57 4 83c0 31 -12 69 -54 75c-35 5 -48 19 -48 43v38l48 8c36 6 56 37 56 76z" />
    <glyph glyph-name="bar" unicode="|" horiz-adv-x="257" 
d="M156 -170h-21c-19 0 -41 17 -41 45v845h20c20 0 42 -14 42 -40v-850z" />
    <glyph glyph-name="braceright" unicode="}" horiz-adv-x="370" 
d="M242 154c0 -25 3 -49 6 -76s1 -62 1 -88c0 -92 -54 -160 -153 -160h-27c-27 0 -59 16 -59 50v40h75c45 0 61 46 61 93c0 19 2 50 -1 72s-5 39 -5 65c0 75 32 111 89 121v2c-57 9 -87 45 -87 120c0 26 0 54 3 76c2 22 1 51 1 70c0 46 -17 91 -65 91h-17
c-36 0 -53 21 -53 50v40h84c97 0 154 -66 154 -158c0 -26 2 -57 -1 -85c-3 -27 -4 -57 -4 -83c0 -31 12 -69 54 -75c35 -5 48 -19 48 -43v-38l-48 -8c-36 -6 -56 -37 -56 -76z" />
    <glyph glyph-name="asciitilde" unicode="~" 
d="M521 326c0 -69 -49 -124 -133 -124c-43 0 -72 19 -103 37c-29 17 -60 26 -78 26c-30 0 -55 -28 -55 -73h-32c-24 0 -50 21 -50 65c0 95 77 129 131 129c42 0 71 -17 101 -34c25 -15 62 -31 83 -31c38 0 55 20 55 70h39c20 0 42 -29 42 -65z" />
    <glyph glyph-name="exclamdown" unicode="&#xa1;" horiz-adv-x="318" 
d="M249 454c0 -47 -38 -86 -86 -86c-47 0 -86 39 -86 86c0 48 39 86 86 86c48 0 86 -38 86 -86zM95 -86l10 386h41c48 0 77 -31 78 -84l10 -386h-61c-48 0 -79 31 -78 84z" />
    <glyph glyph-name="cent" unicode="&#xa2;" 
d="M318 673c43 0 62 -22 62 -69v-62c65 -9 115 -52 115 -111v-67h-7c-20 35 -64 56 -144 56c-77 0 -143 -62 -143 -142c0 -98 58 -163 147 -163c63 0 120 20 138 49h7v-64c0 -48 -43 -91 -113 -104v-138h-21c-45 0 -69 28 -69 70v67c-126 20 -227 125 -227 263
c0 135 81 253 227 280v135h28z" />
    <glyph glyph-name="sterling" unicode="&#xa3;" 
d="M250 117h280v-45c0 -51 -34 -72 -101 -72h-357v37c0 21 16 55 44 87c27 30 45 68 45 107c0 16 -2 41 -7 56h-120v25c0 50 25 74 74 74h26c-5 26 -12 56 -12 91c0 123 101 208 240 208c74 0 133 -46 133 -97v-52s-3 1 -5 0c-32 20 -76 30 -127 30c-57 0 -99 -39 -99 -101
c0 -29 3 -56 9 -79h183v-33c0 -43 -32 -66 -77 -66h-95c2 -9 5 -34 5 -45c0 -51 -15 -95 -39 -125z" />
    <glyph glyph-name="fraction" unicode="&#x2044;" horiz-adv-x="456" 
d="M412 634l-299 -634h-25c-27 0 -51 19 -51 55c0 14 5 36 13 52l288 613h35c25 0 46 -14 46 -45c0 -10 -2 -30 -7 -41z" />
    <glyph glyph-name="yen" unicode="&#xa5;" 
d="M562 637c0 -40 -107 -178 -177 -258h145v-43c0 -23 -27 -45 -65 -45h-108v-82h173v-43c0 -21 -28 -45 -65 -45h-108v-121h-57c-30 0 -62 28 -62 68v53h-170v36c0 29 23 52 64 52h106v82h-170v36c0 29 23 52 64 52h80c-73 89 -155 204 -189 306h63c53 0 81 -22 90 -40
c33 -67 87 -154 129 -205c43 51 117 162 152 245h55c34 0 50 -21 50 -48z" />
    <glyph glyph-name="florin" unicode="&#x192;" 
d="M535 573h-7c-22 9 -57 16 -74 16c-44 0 -75 -32 -84 -99l-9 -65h136v-38c0 -30 -27 -61 -86 -61h-61l-28 -230c-15 -122 -46 -222 -182 -222c-64 0 -102 33 -102 69v55h5c21 -12 61 -17 77 -17c38 0 64 16 74 102l28 243h-117v37c0 36 35 60 69 61l60 1l7 55
c9 74 40 216 204 216c60 0 90 -34 90 -71v-52z" />
    <glyph glyph-name="section" unicode="&#xa7;" 
d="M437 153c38 -26 60 -66 60 -110c0 -111 -77 -183 -227 -183c-114 0 -174 56 -174 117v54h5c36 -40 98 -67 164 -67c55 0 99 17 99 67c0 34 -13 51 -155 100c-88 30 -135 87 -135 154c0 55 42 104 93 124c-40 21 -71 58 -71 118c0 96 88 169 234 169
c85 0 142 -47 142 -104v-51h-4c-40 38 -89 53 -150 53c-65 0 -95 -32 -95 -54c0 -37 14 -52 117 -90c92 -33 175 -77 175 -171c0 -57 -38 -109 -78 -126zM329 332c-43 15 -67 23 -105 40c-20 -14 -35 -35 -35 -62c0 -38 23 -64 78 -83c39 -13 67 -23 104 -38
c17 14 28 35 28 69c0 33 -19 56 -70 74z" />
    <glyph glyph-name="currency" unicode="&#xa4;" 
d="M540 163h6v-50c0 -54 -55 -125 -164 -125c-150 0 -251 93 -272 248h-86v31c0 29 17 47 41 47h38s-1 18 -1 30c0 11 1 28 1 28h-79v34c0 29 22 45 41 45h45c28 163 143 246 277 246c94 0 159 -59 159 -131v-45h-6c-26 34 -78 58 -134 58c-77 0 -141 -29 -157 -128h214v-29
c0 -30 -20 -50 -49 -50h-173s-1 -17 -1 -28c0 -12 1 -30 1 -30h222v-32c0 -26 -18 -46 -49 -46h-166c14 -90 63 -129 157 -129c55 0 110 23 135 56z" />
    <glyph glyph-name="quotesingle" unicode="'" horiz-adv-x="224" 
d="M182 601l-15 -158h-32c-48 0 -73 31 -78 84l-14 158h61c48 0 83 -31 78 -84z" />
    <glyph glyph-name="quotedblleft" unicode="&#x201c;" horiz-adv-x="447" 
d="M241 569c0 88 63 172 140 172h27v-6c-26 -25 -46 -74 -46 -103c0 -19 5 -34 16 -45c15 -15 27 -27 27 -58c0 -41 -33 -74 -78 -74c-51 0 -86 40 -86 114zM33 569c0 88 63 172 140 172h27v-6c-27 -25 -46 -74 -46 -103c0 -19 5 -34 16 -45c15 -15 27 -27 27 -58
c0 -41 -33 -74 -78 -74c-52 0 -86 40 -86 114z" />
    <glyph glyph-name="guillemotleft" unicode="&#xab;" horiz-adv-x="451" 
d="M430 73h-23c-55 0 -85 14 -105 46l-89 144l89 145c17 27 43 44 105 44h23l-111 -189zM242 73h-23c-55 0 -83 15 -105 46l-99 144l99 145c18 26 43 44 105 44h23l-121 -189z" />
    <glyph glyph-name="guilsinglleft" unicode="&#x2039;" horiz-adv-x="339" 
d="M288 93h-43c-55 0 -83 15 -105 46l-99 144l99 145c18 26 43 44 105 44h43l-121 -189z" />
    <glyph glyph-name="guilsinglright" unicode="&#x203a;" horiz-adv-x="339" 
d="M46 93l121 190l-121 189h43c62 0 87 -18 105 -44l99 -145l-99 -144c-22 -31 -50 -46 -105 -46h-43z" />
    <glyph glyph-name="fi" unicode="&#xfb01;" horiz-adv-x="700" 
d="M589 657c0 -43 -36 -79 -79 -79s-78 36 -78 79s35 78 78 78s79 -35 79 -78zM378 600h-4c-21 7 -45 12 -78 12c-55 0 -96 -19 -96 -91v-48h154v-37c0 -48 -51 -76 -96 -76h-58v-360h-54c-43 0 -81 33 -81 80v452c0 76 52 198 210 198c58 0 103 -32 103 -85v-45zM685 76
c0 -58 -23 -81 -80 -81c-104 0 -161 59 -161 168v365h38c60 0 96 -32 96 -100v-252c0 -54 23 -71 82 -71h25v-29z" />
    <glyph glyph-name="fl" unicode="&#xfb02;" horiz-adv-x="707" 
d="M378 600h-4c-21 7 -45 12 -78 12c-55 0 -96 -19 -96 -91v-48h154v-37c0 -48 -51 -76 -96 -76h-58v-360h-54c-43 0 -81 33 -81 80v452c0 76 52 198 210 198c58 0 103 -32 103 -85v-45zM690 76c0 -58 -31 -81 -90 -81c-111 0 -171 59 -171 168v557h38c67 0 96 -39 96 -90
v-454c0 -54 28 -71 91 -71h36v-29z" />
    <glyph glyph-name="endash" unicode="&#x2013;" 
d="M545 354v-53c0 -35 -24 -55 -65 -55h-437v51c0 33 23 57 62 57h440z" />
    <glyph glyph-name="dagger" unicode="&#x2020;" horiz-adv-x="490" 
d="M458 501c0 -38 -30 -79 -89 -79h-67v-580h-35c-38 0 -79 30 -79 89v491h-156v45c0 33 27 69 70 69h86v197h45c33 0 69 -27 69 -70v-127h156v-35z" />
    <glyph glyph-name="daggerdbl" unicode="&#x2021;" horiz-adv-x="490" 
d="M384 97h-82v-267h-45c-43 0 -67 31 -67 70v197h-160v46c0 32 25 69 68 69h92v215h-160v45c0 32 25 69 68 69h92v179h53c37 0 59 -28 59 -61v-118h160v-44c0 -43 -31 -70 -78 -70h-82v-215h160v-45c0 -43 -31 -70 -78 -70z" />
    <glyph glyph-name="periodcentered" unicode="&#xb7;" horiz-adv-x="250" 
d="M124 195c-48 0 -83 36 -83 86c0 51 35 88 84 88s84 -36 84 -88c0 -50 -33 -86 -84 -86h-1z" />
    <glyph glyph-name="paragraph" unicode="&#xb6;" horiz-adv-x="531" 
d="M457 -12h-29c-33 0 -60 21 -60 79v513c0 27 -10 32 -38 32h-33v-624h-22c-36 0 -67 21 -67 79v216h-7c-60 0 -168 58 -170 187c-2 106 56 227 290 227c95 0 136 -33 136 -103v-606z" />
    <glyph glyph-name="bullet" unicode="&#x2022;" horiz-adv-x="326" 
d="M163 478c69 0 125 -54 125 -125s-55 -125 -125 -125h-1c-68 0 -123 54 -124 125s56 125 125 125z" />
    <glyph glyph-name="quotesinglbase" unicode="&#x201a;" horiz-adv-x="260" 
d="M216 34c0 -88 -63 -172 -140 -172h-27v6c27 25 46 74 46 103c0 19 -5 34 -16 45c-15 15 -27 27 -27 58c0 41 33 74 78 74c52 0 86 -40 86 -114z" />
    <glyph glyph-name="quotedblbase" unicode="&#x201e;" horiz-adv-x="447" 
d="M456 34c0 -88 -63 -172 -140 -172h-27v6c27 25 46 74 46 103c0 19 -5 34 -16 45c-15 15 -27 27 -27 58c0 41 33 74 78 74c52 0 86 -40 86 -114zM216 34c0 -88 -63 -172 -140 -172h-27v6c27 25 46 74 46 103c0 19 -5 34 -16 45c-15 15 -27 27 -27 58c0 41 33 74 78 74
c52 0 86 -40 86 -114z" />
    <glyph glyph-name="quotedblright" unicode="&#x201d;" horiz-adv-x="447" 
d="M414 605c0 -88 -62 -172 -140 -172h-27v6c27 25 46 74 46 103c0 19 -4 34 -16 45c-14 14 -27 27 -27 58c0 40 34 74 78 74c52 0 86 -40 86 -114zM204 605c0 -88 -63 -172 -140 -172h-27v6c27 25 46 74 46 103c0 19 -5 34 -16 45c-15 14 -27 27 -27 58c0 40 33 74 78 74
c52 0 86 -40 86 -114z" />
    <glyph glyph-name="guillemotright" unicode="&#xbb;" horiz-adv-x="451" 
d="M210 73l121 190l-121 189h23c62 0 87 -18 105 -44l99 -145l-99 -144c-22 -31 -50 -46 -105 -46h-23zM22 73l111 190l-111 189h23c62 0 88 -17 105 -44l89 -145l-89 -144c-20 -32 -50 -46 -105 -46h-23z" />
    <glyph glyph-name="ellipsis" unicode="&#x2026;" horiz-adv-x="808" 
d="M761 86c0 -47 -39 -86 -86 -86s-86 39 -86 86s39 86 86 86s86 -39 86 -86zM491 86c0 -47 -39 -86 -86 -86s-86 39 -86 86s39 86 86 86s86 -39 86 -86zM221 86c0 -47 -39 -86 -86 -86s-86 39 -86 86s39 86 86 86s86 -39 86 -86z" />
    <glyph glyph-name="perthousand" unicode="&#x2030;" horiz-adv-x="1426" 
d="M400 480c0 -129 -64 -231 -183 -231c-110 0 -174 101 -174 215c0 129 64 231 183 231c110 0 174 -101 174 -215zM672 602l-285 -602h-25c-32 0 -55 17 -55 52c0 19 4 31 16 55l275 576h34c25 0 47 -14 47 -43c0 -13 -2 -27 -7 -38zM1375 227c0 -129 -64 -231 -183 -231
c-110 0 -174 102 -174 216c0 129 63 230 182 230c110 0 175 -101 175 -215zM953 227c0 -129 -64 -231 -183 -231c-110 0 -174 102 -174 216c0 129 63 230 182 230c110 0 175 -101 175 -215zM289 464c0 86 -22 135 -71 135c-43 0 -64 -49 -64 -119c0 -85 21 -135 71 -135
c43 0 64 49 64 119zM1268 215c0 86 -22 134 -71 134c-43 0 -65 -49 -65 -119c0 -85 21 -134 71 -134c43 0 65 49 65 119zM846 215c0 86 -22 134 -71 134c-43 0 -65 -49 -65 -119c0 -85 22 -134 72 -134c43 0 64 49 64 119z" />
    <glyph glyph-name="questiondown" unicode="&#xbf;" horiz-adv-x="472" 
d="M184 454c0 47 39 86 86 86s86 -39 86 -86s-39 -86 -86 -86s-86 39 -86 86zM246 -175c-136 0 -211 80 -211 175c0 49 18 84 69 129l77 66c36 31 42 48 42 80v37h48c31 0 62 -26 62 -59c0 -48 -18 -80 -64 -121l-69 -62c-21 -19 -28 -37 -28 -56c0 -44 30 -70 94 -70
c74 0 127 25 158 65h8v-48c0 -67 -58 -136 -186 -136z" />
    <glyph glyph-name="grave" unicode="`" horiz-adv-x="529" 
d="M137 714c0 36 23 51 56 51c39 0 63 -19 95 -48c29 -26 53 -59 75 -93v-5h-45c-36 0 -82 10 -115 24c-41 17 -66 42 -66 71z" />
    <glyph glyph-name="acute" unicode="&#xb4;" horiz-adv-x="493" 
d="M346 714c0 -29 -25 -54 -66 -71c-33 -14 -79 -24 -115 -24h-45v5c22 34 46 67 75 93c32 29 56 48 95 48c33 0 56 -15 56 -51z" />
    <glyph glyph-name="circumflex" unicode="&#x2c6;" horiz-adv-x="606" 
d="M459 597l-157 72l-155 -71v31c0 49 16 73 59 98l97 56l95 -55c38 -22 61 -49 61 -102v-29z" />
    <glyph glyph-name="tilde" unicode="&#x2dc;" horiz-adv-x="413" 
d="M375 711c0 -53 -36 -96 -100 -96c-33 0 -53 14 -77 28c-22 13 -43 20 -57 20c-23 0 -40 -22 -40 -56h-25c-19 0 -38 16 -38 50c0 72 57 100 98 100c32 0 52 -13 75 -26c19 -11 46 -24 62 -24c29 0 40 16 40 54h30c16 0 32 -23 32 -50z" />
    <glyph glyph-name="macron" unicode="&#xaf;" horiz-adv-x="332" 
d="M299 714v-45c0 -25 -27 -51 -63 -51h-203v36c0 33 26 60 73 60h193z" />
    <glyph glyph-name="breve" unicode="&#x2d8;" horiz-adv-x="481" 
d="M241 584c-80 0 -146 64 -146 155v11c34 -37 81 -68 146 -68c62 0 115 34 145 68v-16c0 -87 -67 -150 -145 -150z" />
    <glyph glyph-name="dotaccent" unicode="&#x2d9;" horiz-adv-x="418" 
d="M115 717c0 52 42 93 94 93s94 -41 94 -93s-42 -94 -94 -94s-94 42 -94 94z" />
    <glyph glyph-name="dieresis" unicode="&#xa8;" horiz-adv-x="505" 
d="M431 684c0 -39 -33 -72 -72 -72s-71 33 -71 72s32 70 71 70s72 -31 72 -70zM217 684c0 -39 -33 -72 -72 -72s-71 33 -71 72s32 70 71 70s72 -31 72 -70z" />
    <glyph glyph-name="ring" unicode="&#x2da;" horiz-adv-x="412" 
d="M317 715c0 -58 -43 -103 -110 -103c-69 0 -112 45 -112 102c0 67 49 105 113 105c70 0 109 -45 109 -104zM252 715c0 27 -17 48 -46 48c-28 0 -44 -24 -44 -49c0 -22 17 -46 44 -46c29 0 46 22 46 47z" />
    <glyph glyph-name="cedilla" unicode="&#xb8;" horiz-adv-x="581" 
d="M430 -124c0 -71 -69 -99 -132 -99c-37 0 -105 7 -105 61v29h5c24 -19 63 -25 94 -25c27 0 54 5 54 31c0 21 -18 28 -51 28c-20 0 -42 -2 -58 -4c11 41 21 71 26 103h62s1 -7 -3 -39c13 0 27 -2 40 -6c36 -10 68 -34 68 -79z" />
    <glyph glyph-name="hungarumlaut" unicode="&#x2dd;" horiz-adv-x="372" 
d="M321 668c-26 -20 -84 -47 -109 -51l-20 -3c8 29 32 71 51 100c21 32 51 63 82 63s44 -11 44 -37s-25 -54 -48 -72zM148 668c-26 -20 -84 -47 -109 -51l-20 -3c8 29 32 71 51 100c21 32 51 63 82 63s44 -11 44 -37s-25 -54 -48 -72z" />
    <glyph glyph-name="ogonek" unicode="&#x2db;" horiz-adv-x="480" 
d="M253 -215c-65 0 -109 35 -109 92c0 55 45 100 91 123h71l-40 -38c-32 -30 -40 -40 -40 -73c0 -19 15 -34 42 -34c16 0 33 2 77 31v-41c0 -44 -44 -60 -92 -60z" />
    <glyph glyph-name="caron" unicode="&#x2c7;" horiz-adv-x="594" 
d="M141 777l157 -72l155 71v-31c0 -49 -16 -73 -59 -98l-97 -56l-95 55c-38 22 -61 49 -61 102v29z" />
    <glyph glyph-name="emdash" unicode="&#x2014;" horiz-adv-x="1019" 
d="M974 354v-53c0 -35 -24 -55 -65 -55h-858v51c0 33 23 57 62 57h861z" />
    <glyph glyph-name="AE" unicode="&#xc6;" horiz-adv-x="909" 
d="M887 83c0 -60 -33 -91 -150 -91h-45c-153 0 -248 38 -264 188h-247c-19 -50 -41 -121 -56 -180h-54c-38 0 -56 18 -56 48c0 6 1 15 2 23c15 100 176 495 301 613h568v-45c0 -44 -37 -72 -93 -72h-292c9 -44 20 -108 27 -159h282v-49c0 -42 -28 -62 -83 -62h-189l9 -66
c13 -94 30 -122 132 -122h58c68 0 125 12 150 22v-48zM411 290c-4 77 -30 224 -45 278c-52 -72 -109 -192 -140 -278h185z" />
    <glyph glyph-name="ordfeminine" unicode="&#xaa;" horiz-adv-x="402" 
d="M335 448c0 -75 -54 -127 -130 -127h-16c-81 0 -137 47 -137 113c0 64 45 112 169 112h24c0 46 -19 58 -67 58c-59 0 -94 -21 -107 -38h-5v31c0 41 36 88 125 88c75 0 144 -36 144 -158v-79zM245 447v29h-24c-63 0 -76 -15 -76 -39s17 -38 52 -38c33 0 48 13 48 48z" />
    <glyph glyph-name="Lslash" unicode="&#x141;" horiz-adv-x="521" 
d="M357 490v-46c0 -38 -15 -60 -65 -79l-81 -31v-77c0 -104 24 -142 127 -142h35c65 0 118 15 143 25v-47c0 -60 -30 -99 -143 -99h-53c-161 0 -250 90 -250 254v32l-101 -39v47c0 33 12 59 62 78l39 15v304h56c56 0 85 -32 85 -100v-150z" />
    <glyph glyph-name="Oslash" unicode="&#xd8;" horiz-adv-x="721" 
d="M683 353c0 -207 -102 -363 -330 -363c-64 0 -126 20 -178 58l-52 -59h-27c-22 0 -40 15 -40 32c0 14 -1 27 11 41l44 49c-42 56 -69 131 -69 221c0 199 104 365 331 365c63 0 135 -22 194 -70l60 68h29c17 0 39 -19 39 -42c0 -12 -2 -25 -12 -36l-54 -61
c33 -52 54 -119 54 -203zM482 532c-32 31 -75 44 -129 44c-126 0 -170 -112 -170 -223c0 -54 7 -99 22 -135zM542 334c0 43 -4 80 -12 111l-270 -302c30 -23 68 -34 113 -34c114 0 169 122 169 225z" />
    <glyph glyph-name="OE" unicode="&#x152;" horiz-adv-x="929" 
d="M907 126l-1 -48c-1 -60 -29 -85 -148 -85h-35c-117 0 -178 40 -209 97c-38 -64 -96 -107 -187 -107c-142 0 -285 130 -285 349c0 204 103 370 304 370c57 0 122 -30 156 -78c11 32 45 60 83 60h321v-46c0 -44 -36 -73 -92 -73h-197c-9 -37 -15 -121 -15 -160h241v-49
c0 -45 -28 -63 -83 -63h-158l1 -40c3 -114 48 -143 138 -143h17c31 0 59 2 83 5c13 1 25 2 35 4c14 2 24 5 31 7zM470 334c0 193 -38 245 -131 245c-99 0 -154 -102 -154 -229c0 -166 73 -244 157 -244c87 0 128 43 128 228z" />
    <glyph glyph-name="ordmasculine" unicode="&#xba;" horiz-adv-x="402" 
d="M365 508c0 -104 -58 -187 -167 -187c-101 0 -160 83 -160 175c0 104 58 188 167 188c101 0 160 -84 160 -176zM272 496c0 68 -24 104 -74 104c-43 0 -67 -36 -67 -92c0 -67 23 -103 74 -103c44 0 67 36 67 91z" />
    <glyph glyph-name="ae" unicode="&#xe6;" horiz-adv-x="861" 
d="M823 353c0 -101 -59 -135 -237 -131l-98 2c10 -69 52 -119 148 -119c76 0 131 17 164 49h3v-42c0 -70 -46 -123 -183 -123c-91 0 -166 46 -194 96c-23 -54 -79 -97 -164 -97h-27c-120 0 -194 68 -194 164c0 97 69 174 256 174h58v13c0 72 -37 98 -117 98
c-97 0 -147 -32 -170 -61h-4v44c0 61 52 132 194 132c82 0 151 -34 176 -94c33 60 108 95 181 95c103 0 208 -70 208 -200zM603 443c-62 0 -108 -45 -114 -101l-2 -20l57 -1c127 -2 153 4 153 47c0 48 -36 75 -94 75zM356 182v49h-49c-102 0 -129 -24 -129 -69
c0 -43 28 -64 91 -64c46 0 87 37 87 84z" />
    <glyph glyph-name="dotlessi" unicode="&#x131;" horiz-adv-x="333" 
d="M318 76c0 -58 -23 -81 -80 -81c-104 0 -161 59 -161 168v365h38c60 0 96 -32 96 -100v-252c0 -54 23 -71 82 -71h25v-29z" />
    <glyph glyph-name="lslash" unicode="&#x142;" horiz-adv-x="326" 
d="M247 348l-43 -17v-155c0 -54 28 -71 91 -71h36v-29c0 -58 -31 -81 -90 -81c-111 0 -171 59 -171 168v117l-101 -39v47c0 33 12 59 62 78l39 15v339h38c67 0 96 -39 96 -90v-198l108 41v-46c0 -38 -15 -60 -65 -79z" />
    <glyph glyph-name="oslash" unicode="&#xf8;" horiz-adv-x="602" 
d="M98 -13c-22 0 -40 15 -40 32c0 14 -1 27 11 41l24 28c-35 48 -53 109 -53 172c0 162 93 292 267 292c56 0 104 -16 143 -42l36 42h19c20 0 39 -15 39 -42c0 -12 -2 -24 -12 -36l-21 -25c33 -48 51 -108 51 -170c0 -162 -93 -291 -267 -291c-56 0 -104 16 -143 42l-37 -43
h-17zM187 199l181 214c-19 14 -43 21 -73 21c-78 0 -117 -65 -117 -155c0 -30 3 -57 9 -80zM416 338l-182 -212c19 -13 43 -20 73 -20c79 0 117 65 117 154c0 29 -2 55 -8 78z" />
    <glyph glyph-name="oe" unicode="&#x153;" horiz-adv-x="926" 
d="M888 353c0 -101 -59 -140 -237 -140h-97c10 -69 68 -109 147 -109c76 0 131 17 164 49h3v-43c0 -70 -54 -122 -192 -122c-68 0 -149 32 -194 94c-39 -61 -103 -94 -189 -94c-150 0 -253 120 -253 273c0 175 104 291 265 291c57 0 140 -29 182 -90c49 65 114 90 192 90
c101 0 209 -74 209 -199zM663 443c-87 0 -111 -81 -111 -112v-23h57c127 0 153 13 153 56c0 47 -41 79 -99 79zM297 431c-76 0 -120 -61 -120 -151c0 -120 57 -171 132 -171c67 0 106 53 106 161c0 117 -49 161 -118 161z" />
    <glyph glyph-name="germandbls" unicode="&#xdf;" horiz-adv-x="623" 
d="M593 168c0 -104 -59 -178 -193 -178c-81 0 -126 44 -126 85v57h5c28 -15 64 -26 105 -26c50 0 72 22 72 57c0 41 -13 52 -69 81c-65 34 -90 60 -90 120c0 39 19 80 82 118c38 23 50 45 50 66c0 43 -26 65 -97 65c-68 0 -125 -52 -125 -157v-456h-43c-67 0 -94 30 -94 98
v366c0 170 111 266 267 266c135 0 229 -62 229 -177c0 -54 -27 -90 -82 -120c-58 -31 -68 -43 -68 -63c0 -19 13 -30 88 -73c53 -30 89 -72 89 -129z" />
    <glyph glyph-name="Eth" unicode="&#xd0;" horiz-adv-x="665" 
d="M65 389v272c33 13 117 26 169 26h71c157 0 322 -105 322 -334c0 -207 -136 -359 -315 -359h-57c-116 0 -190 46 -190 152v150h-74v44c0 28 18 49 50 49h24zM343 389v-45c0 -31 -19 -48 -53 -48h-88v-124c0 -40 18 -58 69 -58h23c114 0 193 96 193 220
c0 153 -85 238 -203 238h-30c-17 0 -52 -7 -52 -7v-176h141z" />
    <glyph glyph-name="eth" unicode="&#xf0;" horiz-adv-x="602" 
d="M562 278c0 -162 -94 -290 -267 -290c-162 0 -255 129 -255 272c0 162 88 285 255 285c42 0 76 -11 106 -41c-12 53 -54 106 -99 133l-96 -72c-20 16 -34 25 -27 54c4 21 31 35 46 47c-44 10 -63 39 -62 62v42l40 -1c45 -2 90 -15 126 -28l86 65l22 -20
c11 -10 9 -22 6 -33c-4 -22 -31 -38 -47 -50c98 -65 166 -194 166 -377v-47v-1zM423 260c0 108 -40 168 -128 168c-77 0 -116 -60 -116 -149c0 -107 39 -171 128 -171c78 0 116 64 116 152z" />
    <glyph glyph-name="Scaron" unicode="&#x160;" horiz-adv-x="572" 
d="M527 212c0 -135 -92 -224 -258 -224c-138 0 -209 54 -209 135v61h3c46 -41 108 -74 191 -74c103 0 136 35 136 90c0 47 -18 68 -163 99c-116 25 -182 83 -182 176c0 114 96 222 257 222c160 0 206 -68 206 -125v-63h-4c-42 45 -103 67 -178 67c-106 0 -145 -35 -145 -88
c0 -41 32 -66 160 -93c125 -26 186 -91 186 -183zM144 915l157 -72l155 71v-31c0 -49 -16 -73 -59 -98l-97 -56l-95 55c-38 22 -61 49 -61 102v29z" />
    <glyph glyph-name="scaron" unicode="&#x161;" horiz-adv-x="492" 
d="M453 170c0 -114 -80 -182 -225 -182c-99 0 -173 51 -173 106v61h5c29 -27 98 -51 162 -51c66 0 98 19 98 59c0 31 -19 46 -112 59c-114 16 -169 61 -169 143c0 101 91 187 229 187c122 0 172 -63 172 -115v-51h-5c-28 28 -90 50 -154 50c-82 0 -108 -25 -108 -60
c0 -27 16 -38 108 -53c112 -18 172 -67 172 -153zM101 777l157 -72l155 71v-31c0 -49 -16 -73 -59 -98l-97 -56l-95 55c-38 22 -61 49 -61 102v29z" />
    <glyph glyph-name="Yacute" unicode="&#xdd;" horiz-adv-x="571" 
d="M556 632c0 -53 -140 -268 -202 -340v-292h-57c-40 0 -83 30 -83 90v202c-80 104 -166 266 -209 393h64c54 0 83 -27 92 -48c34 -80 88 -178 131 -239c44 61 117 184 148 287h60c36 0 56 -21 56 -53zM447 833c0 -29 -25 -54 -66 -71c-33 -14 -79 -24 -115 -24h-45v5
c22 34 46 67 75 93c32 29 56 48 95 48c33 0 56 -15 56 -51z" />
    <glyph glyph-name="yacute" unicode="&#xfd;" horiz-adv-x="508" 
d="M374 116c-100 -236 -153 -291 -250 -291c-50 0 -94 33 -94 83v26l76 5c49 3 66 23 95 99c-71 107 -173 375 -191 502h71c37 0 71 -25 78 -63c19 -104 59 -216 108 -311c44 101 93 264 105 374h58c43 0 63 -19 63 -63c0 -57 -94 -303 -119 -361zM416 714
c0 -29 -25 -54 -66 -71c-33 -14 -79 -24 -115 -24h-45v5c22 34 46 67 75 93c32 29 56 48 95 48c33 0 56 -15 56 -51z" />
    <glyph glyph-name="Thorn" unicode="&#xde;" horiz-adv-x="563" 
d="M407 346c0 78 -32 99 -104 99h-44c-17 0 -41 -2 -57 -5v-181c24 -5 62 -9 97 -9c70 0 108 30 108 96zM65 685h62c35 0 75 -29 75 -73v-55c16 2 29 4 41 4h77c133 0 228 -66 228 -203c0 -145 -100 -224 -231 -224c-48 0 -89 7 -115 16v-150h-54c-38 0 -83 25 -83 98v587z
" />
    <glyph glyph-name="thorn" unicode="&#xfe;" horiz-adv-x="620" 
d="M200 300v-49c0 -92 59 -144 132 -144c65 0 110 58 110 144c0 127 -42 182 -128 182c-67 0 -114 -53 -114 -133zM66 283v437h38c67 0 96 -39 96 -90v-116c32 25 81 38 135 38c143 0 245 -130 245 -266c0 -173 -86 -298 -243 -298c-60 0 -109 29 -136 70v-228h-42
c-48 0 -94 35 -94 93v326c0 12 1 23 1 34z" />
    <glyph glyph-name="Zcaron" unicode="&#x17d;" horiz-adv-x="587" 
d="M547 71c0 -35 -28 -71 -78 -71h-343c-49 0 -86 31 -86 86c0 59 46 118 103 182l170 192c33 37 65 77 74 105h-347v37c0 54 29 83 102 83h311c66 0 93 -33 93 -90c0 -42 -33 -102 -83 -158l-169 -189c-46 -52 -85 -98 -92 -128h345v-49zM147 914l157 -72l155 71v-31
c0 -49 -16 -73 -59 -98l-97 -56l-95 55c-38 22 -61 49 -61 102v29z" />
    <glyph glyph-name="zcaron" unicode="&#x17e;" horiz-adv-x="505" 
d="M465 63c0 -33 -35 -63 -69 -63h-263c-62 0 -92 29 -92 71c0 41 31 93 82 148l136 148c16 18 37 43 46 61h-265v41c0 40 29 71 89 71h245c63 0 84 -38 84 -69c0 -42 -22 -92 -69 -143l-135 -146c-19 -21 -39 -45 -51 -67h262v-52zM101 777l157 -72l155 71v-31
c0 -49 -16 -73 -59 -98l-97 -56l-95 55c-38 22 -61 49 -61 102v29z" />
    <glyph glyph-name="onehalf" unicode="&#xbd;" horiz-adv-x="900" 
d="M603 675c0 -10 -2 -30 -7 -41l-299 -634h-25c-27 0 -51 19 -51 55c0 14 5 36 13 52l288 613h35c25 0 46 -14 46 -45zM777 0h-200c-30 0 -57 19 -57 52c0 39 29 73 74 109l94 74c18 13 26 29 26 46c0 25 -19 46 -66 46c-55 0 -87 -12 -116 -50h-4v40c0 57 41 109 154 109
c95 0 153 -63 153 -132c0 -61 -22 -87 -93 -137c-10 -6 -22 -15 -36 -24c-13 -9 -27 -18 -47 -35h185v-42c0 -35 -22 -56 -67 -56zM204 281c-36 0 -64 25 -64 66v238l-35 -11c-36 -10 -70 5 -75 34l-6 31c32 14 111 46 111 46c18 8 41 13 67 13c28 0 57 -20 57 -55v-362h-55
z" />
    <glyph glyph-name="onequarter" unicode="&#xbc;" horiz-adv-x="900" 
d="M603 675c0 -10 -2 -30 -7 -41l-299 -634h-25c-27 0 -51 19 -51 55c0 14 5 36 13 52l288 613h35c25 0 46 -14 46 -45zM259 281h-55c-36 0 -64 25 -64 66v238l-35 -11c-36 -10 -70 5 -75 34l-6 31c32 14 111 46 111 46c18 8 41 13 67 13c28 0 57 -20 57 -55v-362zM813 91
h-32v-91h-59c-40 0 -63 16 -63 58v33h-109c-33 0 -67 21 -67 51c0 24 5 42 16 62c43 77 129 186 176 215h38c39 0 68 -26 68 -70v-160h84v-47c0 -29 -20 -51 -52 -51zM659 281c-23 -31 -47 -68 -59 -93h59v93z" />
    <glyph glyph-name="onesuperior" unicode="&#xb9;" horiz-adv-x="375" 
d="M259 281h-55c-36 0 -64 25 -64 66v238l-35 -11c-36 -10 -70 5 -75 34l-6 31c32 14 111 46 111 46c18 8 41 13 67 13c28 0 57 -20 57 -55v-362z" />
    <glyph glyph-name="threequarters" unicode="&#xbe;" horiz-adv-x="900" 
d="M875 142c0 -29 -20 -51 -52 -51h-32v-91h-59c-40 0 -63 16 -63 58v33h-109c-33 0 -67 21 -67 51c0 24 5 42 16 62c43 77 129 186 176 215h38c39 0 68 -26 68 -70v-160h84v-47zM629 641c0 -10 -2 -30 -7 -41l-283 -600h-25c-27 0 -51 19 -51 55c0 14 5 36 13 52l272 579
h35c25 0 46 -14 46 -45zM669 188v93c-23 -31 -47 -68 -59 -93h59zM157 264c-64 0 -130 23 -130 92v47h9c25 -26 70 -41 119 -41c48 0 61 17 61 34c0 28 -10 40 -69 44c-31 2 -52 16 -52 46v29l59 5c59 5 60 21 60 39c0 21 -14 41 -71 41c-42 0 -80 -15 -105 -42h-9v50
c0 45 47 90 145 90c81 0 153 -46 153 -124c0 -44 -25 -74 -54 -90c29 -13 56 -45 56 -82c0 -90 -65 -138 -172 -138z" />
    <glyph glyph-name="threesuperior" unicode="&#xb3;" horiz-adv-x="373" 
d="M157 264c-64 0 -130 23 -130 92v47h9c25 -26 70 -41 119 -41c48 0 61 17 61 34c0 28 -10 40 -69 44c-31 2 -52 16 -52 46v29l59 5c59 5 60 21 60 39c0 21 -14 41 -71 41c-42 0 -80 -15 -105 -42h-9v50c0 45 47 90 145 90c81 0 153 -46 153 -124c0 -44 -25 -74 -54 -90
c29 -13 56 -45 56 -82c0 -90 -65 -138 -172 -138z" />
    <glyph glyph-name="twosuperior" unicode="&#xb2;" horiz-adv-x="435" 
d="M311 271h-200c-30 0 -58 20 -58 52c0 39 30 74 74 109l94 74c18 14 26 29 26 47c0 25 -19 45 -66 45c-55 0 -86 -12 -116 -49h-4v39c0 57 42 109 155 109c95 0 152 -63 152 -131c0 -62 -21 -88 -93 -138c-9 -6 -22 -14 -35 -23c-14 -9 -28 -19 -47 -36h184v-42
c0 -35 -22 -56 -66 -56z" />
    <glyph glyph-name="brokenbar" unicode="&#xa6;" horiz-adv-x="257" 
d="M156 322h-21c-19 0 -41 17 -41 45v353h20c20 0 42 -14 42 -40v-358zM156 -170h-21c-19 0 -41 17 -41 45v353h20c20 0 42 -14 42 -40v-358z" />
    <glyph glyph-name="minus" unicode="&#x2212;" horiz-adv-x="589" 
d="M488 354v-53c0 -35 -25 -55 -65 -55h-345v51c0 33 23 57 62 57h348z" />
    <glyph glyph-name="multiply" unicode="&#xd7;" horiz-adv-x="589" 
d="M125 58l-37 37c-25 25 -22 56 7 85l121 121l-166 167l36 36c23 23 56 24 84 -3l123 -123l159 159l36 -36c23 -23 24 -57 -3 -84l-116 -116l177 -177l-37 -37c-25 -25 -56 -22 -85 7l-131 131z" />
    <glyph glyph-name="Adieresis" unicode="&#xc4;" horiz-adv-x="622" 
d="M612 0h-56c-57 0 -87 33 -92 66c-6 45 -12 80 -19 109h-273c-14 -58 -26 -117 -36 -175h-53c-45 0 -63 24 -63 66c0 99 128 502 233 619h56c55 0 92 -30 111 -63c62 -111 165 -406 192 -622zM414 284c-23 96 -70 211 -106 275c-40 -71 -83 -180 -106 -275h212zM481 820
c0 -39 -33 -72 -72 -72s-71 33 -71 72s32 70 71 70s72 -31 72 -70zM267 820c0 -39 -33 -72 -72 -72s-71 33 -71 72s32 70 71 70s72 -31 72 -70z" />
    <glyph glyph-name="Aring" unicode="&#xc5;" horiz-adv-x="622" 
d="M612 0h-56c-57 0 -87 33 -92 66c-6 45 -14 80 -21 109h-271c-14 -58 -26 -117 -36 -175h-53c-45 0 -63 24 -63 66c0 91 107 437 206 584c-21 18 -38 44 -38 74c0 67 55 113 119 113c70 0 115 -53 115 -112c0 -28 -13 -53 -31 -71c19 -15 49 -66 72 -120
c65 -153 136 -407 149 -534zM350 725c0 27 -17 45 -45 45s-43 -21 -43 -46c0 -22 16 -46 43 -46c29 0 45 22 45 47zM414 284c-23 96 -70 211 -106 275c-40 -71 -83 -180 -106 -275h212z" />
    <glyph glyph-name="Ccedilla" unicode="&#xc7;" horiz-adv-x="598" 
d="M586 502h-5c-43 56 -129 74 -188 74c-122 0 -213 -88 -213 -221c0 -161 89 -242 218 -242c68 0 144 27 181 66h5v-51c0 -94 -109 -134 -204 -134h-3c0 -11 0 -23 -1 -33c47 0 108 -23 108 -85c0 -71 -69 -99 -132 -99c-37 0 -105 7 -105 61v29h5c24 -19 63 -25 94 -25
c27 0 54 5 54 31c0 21 -18 28 -51 28c-20 0 -42 -2 -58 -4c8 32 18 67 26 103c-154 27 -275 154 -275 335c0 211 141 360 350 360c112 0 194 -46 194 -140v-53z" />
    <glyph glyph-name="Eacute" unicode="&#xc9;" horiz-adv-x="560" 
d="M538 128l-1 -48c-1 -55 -29 -85 -149 -85h-73c-167 0 -255 92 -255 267v127c0 65 5 138 13 193c11 82 49 103 105 103h358v-46c0 -48 -29 -72 -92 -72h-235c-7 -50 -10 -117 -10 -160h264v-49c0 -45 -28 -63 -83 -63h-181v-40c0 -119 39 -142 145 -142h44
c50 0 101 4 150 15zM446 844c0 -29 -25 -54 -66 -71c-33 -14 -79 -24 -115 -24h-45v5c22 34 46 67 75 93c32 29 56 48 95 48c33 0 56 -15 56 -51z" />
    <glyph glyph-name="Ntilde" unicode="&#xd1;" horiz-adv-x="688" 
d="M623 0h-54c-53 0 -111 16 -196 181l-125 243c-19 38 -34 64 -46 80v-504h-54c-40 0 -83 30 -83 90v595h68c90 0 148 -48 194 -140l120 -240c14 -28 30 -69 40 -92v472h61c35 0 75 -35 75 -79v-606zM503 851c0 -53 -36 -96 -100 -96c-33 0 -53 14 -77 28
c-22 13 -43 20 -57 20c-23 0 -40 -22 -40 -56h-25c-19 0 -38 16 -38 50c0 72 57 100 98 100c32 0 52 -13 75 -26c19 -11 46 -24 62 -24c29 0 40 16 40 54h30c16 0 32 -23 32 -50z" />
    <glyph glyph-name="Odieresis" unicode="&#xd6;" horiz-adv-x="725" 
d="M683 353c0 -208 -119 -365 -328 -365c-173 0 -313 139 -313 344c0 213 120 365 328 365c166 0 313 -127 313 -344zM542 334c0 161 -69 242 -185 242c-101 0 -174 -83 -174 -223c0 -165 60 -246 185 -246c106 0 174 76 174 227zM541 820c0 -39 -33 -72 -72 -72
s-71 33 -71 72s32 70 71 70s72 -31 72 -70zM327 820c0 -39 -33 -72 -72 -72s-71 33 -71 72s32 70 71 70s72 -31 72 -70z" />
    <glyph glyph-name="Udieresis" unicode="&#xdc;" horiz-adv-x="663" 
d="M612 309c0 -201 -93 -321 -289 -321c-166 0 -273 111 -273 309v388h53c43 0 85 -31 85 -126v-253c0 -128 43 -190 149 -190c97 0 137 64 137 185v384h52c52 0 86 -38 86 -122v-254zM491 824c0 -39 -33 -72 -72 -72s-71 33 -71 72s32 70 71 70s72 -31 72 -70zM277 824
c0 -39 -33 -72 -72 -72s-71 33 -71 72s32 70 71 70s72 -31 72 -70z" />
    <glyph glyph-name="aacute" unicode="&#xe1;" horiz-adv-x="529" 
d="M488 184c0 -114 -84 -193 -204 -193h-27c-128 0 -216 72 -216 171c0 96 70 169 268 169h47v7c0 76 -36 99 -116 99c-97 0 -151 -37 -171 -62h-5v43c0 60 54 132 196 132c120 0 228 -56 228 -242v-124zM357 183v52h-48c-102 0 -131 -24 -131 -68c0 -42 34 -67 93 -67
c58 0 86 28 86 83zM406 714c0 -29 -25 -54 -66 -71c-33 -14 -79 -24 -115 -24h-45v5c22 34 46 67 75 93c32 29 56 48 95 48c33 0 56 -15 56 -51z" />
    <glyph glyph-name="agrave" unicode="&#xe0;" horiz-adv-x="529" 
d="M137 714c0 36 23 51 56 51c39 0 63 -19 95 -48c29 -26 53 -59 75 -93v-5h-45c-36 0 -82 10 -115 24c-41 17 -66 42 -66 71zM488 184c0 -114 -84 -193 -204 -193h-27c-128 0 -216 72 -216 171c0 96 70 169 268 169h47v7c0 76 -36 99 -116 99c-97 0 -151 -37 -171 -62h-5
v43c0 60 54 132 196 132c120 0 228 -56 228 -242v-124zM357 183v52h-48c-102 0 -131 -24 -131 -68c0 -42 34 -67 93 -67c58 0 86 28 86 83z" />
    <glyph glyph-name="acircumflex" unicode="&#xe2;" horiz-adv-x="529" 
d="M488 184c0 -114 -84 -193 -204 -193h-27c-128 0 -216 72 -216 171c0 96 70 169 268 169h47v7c0 76 -36 99 -116 99c-97 0 -151 -37 -171 -62h-5v43c0 60 54 132 196 132c120 0 228 -56 228 -242v-124zM357 183v52h-48c-102 0 -131 -24 -131 -68c0 -42 34 -67 93 -67
c58 0 86 28 86 83zM419 593l-157 72l-155 -71v31c0 49 16 73 59 98l97 56l95 -55c38 -22 61 -49 61 -102v-29z" />
    <glyph glyph-name="adieresis" unicode="&#xe4;" horiz-adv-x="529" 
d="M488 184c0 -114 -84 -193 -204 -193h-27c-128 0 -216 72 -216 171c0 96 70 169 268 169h47v7c0 76 -36 99 -116 99c-97 0 -151 -37 -171 -62h-5v43c0 60 54 132 196 132c120 0 228 -56 228 -242v-124zM357 183v52h-48c-102 0 -131 -24 -131 -68c0 -42 34 -67 93 -67
c58 0 86 28 86 83zM431 684c0 -39 -33 -72 -72 -72s-71 33 -71 72s32 70 71 70s72 -31 72 -70zM217 684c0 -39 -33 -72 -72 -72s-71 33 -71 72s32 70 71 70s72 -31 72 -70z" />
    <glyph glyph-name="atilde" unicode="&#xe3;" horiz-adv-x="529" 
d="M488 184c0 -114 -84 -193 -204 -193h-27c-128 0 -216 72 -216 171c0 96 70 169 268 169h47v7c0 76 -36 99 -116 99c-97 0 -151 -37 -171 -62h-5v43c0 60 54 132 196 132c120 0 228 -56 228 -242v-124zM357 183v52h-48c-102 0 -131 -24 -131 -68c0 -42 34 -67 93 -67
c58 0 86 28 86 83zM425 711c0 -53 -36 -96 -100 -96c-33 0 -53 14 -77 28c-22 13 -43 20 -57 20c-23 0 -40 -22 -40 -56h-25c-19 0 -38 16 -38 50c0 72 57 100 98 100c32 0 52 -13 75 -26c19 -11 46 -24 62 -24c29 0 40 16 40 54h30c16 0 32 -23 32 -50z" />
    <glyph glyph-name="aring" unicode="&#xe5;" horiz-adv-x="529" 
d="M488 184c0 -114 -84 -193 -204 -193h-27c-128 0 -216 72 -216 171c0 96 70 169 268 169h47v7c0 76 -36 99 -116 99c-97 0 -151 -37 -171 -62h-5v43c0 60 54 132 196 132c120 0 228 -56 228 -242v-124zM357 183v52h-48c-102 0 -131 -24 -131 -68c0 -42 34 -67 93 -67
c58 0 86 28 86 83zM374 698c0 -58 -43 -103 -110 -103c-69 0 -112 45 -112 102c0 67 49 105 113 105c70 0 109 -45 109 -104zM309 698c0 27 -17 48 -46 48c-28 0 -44 -24 -44 -49c0 -22 17 -46 44 -46c29 0 46 22 46 47z" />
    <glyph glyph-name="ccedilla" unicode="&#xe7;" horiz-adv-x="510" 
d="M478 366h-5c-18 31 -69 56 -146 56c-78 0 -147 -63 -147 -143c0 -98 58 -165 149 -165c77 0 123 25 142 50h5v-62c0 -63 -60 -110 -153 -112c0 -10 0 -20 -1 -29c47 0 108 -23 108 -85c0 -71 -69 -99 -132 -99c-37 0 -105 7 -105 61v29h5c24 -19 63 -25 94 -25
c27 0 54 5 54 31c0 21 -18 28 -51 28c-20 0 -42 -2 -58 -4c8 30 17 64 25 98c-124 24 -222 130 -222 264c0 154 107 286 291 286c86 0 147 -52 147 -116v-63z" />
    <glyph glyph-name="eacute" unicode="&#xe9;" horiz-adv-x="558" 
d="M520 343c0 -99 -75 -131 -253 -131h-88c10 -68 72 -111 151 -111c56 0 122 11 165 51h5v-42c0 -69 -47 -122 -195 -122c-134 0 -265 106 -265 271c0 180 110 293 264 293c112 0 216 -80 216 -209zM394 359c0 54 -40 81 -102 81c-65 0 -110 -53 -113 -115l-1 -18h60
c127 0 156 14 156 52zM438 714c0 -29 -25 -54 -66 -71c-33 -14 -79 -24 -115 -24h-45v5c22 34 46 67 75 93c32 29 56 48 95 48c33 0 56 -15 56 -51z" />
    <glyph glyph-name="egrave" unicode="&#xe8;" horiz-adv-x="558" 
d="M137 714c0 36 23 51 56 51c39 0 63 -19 95 -48c29 -26 53 -59 75 -93v-5h-45c-36 0 -82 10 -115 24c-41 17 -66 42 -66 71zM520 343c0 -99 -75 -131 -253 -131h-88c10 -68 72 -111 151 -111c56 0 122 11 165 51h5v-42c0 -69 -47 -122 -195 -122c-134 0 -265 106 -265 271
c0 180 110 293 264 293c112 0 216 -80 216 -209zM394 359c0 54 -40 81 -102 81c-65 0 -110 -53 -113 -115l-1 -18h60c127 0 156 14 156 52z" />
    <glyph glyph-name="ecircumflex" unicode="&#xea;" horiz-adv-x="558" 
d="M520 343c0 -99 -75 -131 -253 -131h-88c10 -68 72 -111 151 -111c56 0 122 11 165 51h5v-42c0 -69 -47 -122 -195 -122c-134 0 -265 106 -265 271c0 180 110 293 264 293c112 0 216 -80 216 -209zM394 359c0 54 -40 81 -102 81c-65 0 -110 -53 -113 -115l-1 -18h60
c127 0 156 14 156 52zM452 593l-157 72l-155 -71v31c0 49 16 73 59 98l97 56l95 -55c38 -22 61 -49 61 -102v-29z" />
    <glyph glyph-name="edieresis" unicode="&#xeb;" horiz-adv-x="558" 
d="M520 343c0 -99 -75 -131 -253 -131h-88c10 -68 72 -111 151 -111c56 0 122 11 165 51h5v-42c0 -69 -47 -122 -195 -122c-134 0 -265 106 -265 271c0 180 110 293 264 293c112 0 216 -80 216 -209zM394 359c0 54 -40 81 -102 81c-65 0 -110 -53 -113 -115l-1 -18h60
c127 0 156 14 156 52zM461 684c0 -39 -33 -72 -72 -72s-71 33 -71 72s32 70 71 70s72 -31 72 -70zM247 684c0 -39 -33 -72 -72 -72s-71 33 -71 72s32 70 71 70s72 -31 72 -70z" />
    <glyph glyph-name="iacute" unicode="&#xed;" horiz-adv-x="333" 
d="M301 714c0 -29 -25 -54 -66 -71c-33 -14 -79 -24 -115 -24h-45v5c22 34 46 67 75 93c32 29 56 48 95 48c33 0 56 -15 56 -51zM323 76c0 -58 -23 -81 -80 -81c-104 0 -161 59 -161 168v365h38c60 0 96 -32 96 -100v-252c0 -54 23 -71 82 -71h25v-29z" />
    <glyph glyph-name="igrave" unicode="&#xec;" horiz-adv-x="333" 
d="M5 714c0 36 23 51 56 51c39 0 63 -19 95 -48c29 -26 53 -59 75 -93v-5h-45c-36 0 -82 10 -115 24c-41 17 -66 42 -66 71zM323 76c0 -58 -23 -81 -80 -81c-104 0 -161 59 -161 168v365h38c60 0 96 -32 96 -100v-252c0 -54 23 -71 82 -71h25v-29z" />
    <glyph glyph-name="icircumflex" unicode="&#xee;" horiz-adv-x="333" 
d="M312 593l-157 72l-155 -71v31c0 49 16 73 59 98l97 56l95 -55c38 -22 61 -49 61 -102v-29zM323 76c0 -58 -23 -81 -80 -81c-104 0 -161 59 -161 168v365h38c60 0 96 -32 96 -100v-252c0 -54 23 -71 82 -71h25v-29z" />
    <glyph glyph-name="idieresis" unicode="&#xef;" horiz-adv-x="333" 
d="M323 684c0 -39 -33 -72 -72 -72s-71 33 -71 72s32 70 71 70s72 -31 72 -70zM109 684c0 -39 -33 -72 -72 -72s-71 33 -71 72s32 70 71 70s72 -31 72 -70zM317 76c0 -58 -23 -81 -80 -81c-104 0 -161 59 -161 168v365h38c60 0 96 -32 96 -100v-252c0 -54 23 -71 82 -71h25
v-29z" />
    <glyph glyph-name="ntilde" unicode="&#xf1;" horiz-adv-x="605" 
d="M540 0h-36c-60 0 -98 38 -98 88v214c0 91 -40 131 -109 131c-58 0 -98 -44 -98 -121v-312h-40c-57 0 -94 38 -94 88v233c0 114 75 231 243 231c127 0 232 -85 232 -238v-314zM465 711c0 -53 -36 -96 -100 -96c-33 0 -53 14 -77 28c-22 13 -43 20 -57 20
c-23 0 -40 -22 -40 -56h-25c-19 0 -38 16 -38 50c0 72 57 100 98 100c32 0 52 -13 75 -26c19 -11 46 -24 62 -24c29 0 40 16 40 54h30c16 0 32 -23 32 -50z" />
    <glyph glyph-name="oacute" unicode="&#xf3;" horiz-adv-x="602" 
d="M40 260c0 162 93 292 267 292c162 0 255 -130 255 -273c0 -162 -93 -291 -267 -291c-162 0 -255 129 -255 272zM423 260c0 108 -40 172 -128 172c-77 0 -116 -64 -116 -153c0 -107 39 -171 128 -171c78 0 116 64 116 152zM436 714c0 -29 -25 -54 -66 -71
c-33 -14 -79 -24 -115 -24h-45v5c22 34 46 67 75 93c32 29 56 48 95 48c33 0 56 -15 56 -51z" />
    <glyph glyph-name="ograve" unicode="&#xf2;" horiz-adv-x="602" 
d="M137 714c0 36 23 51 56 51c39 0 63 -19 95 -48c29 -26 53 -59 75 -93v-5h-45c-36 0 -82 10 -115 24c-41 17 -66 42 -66 71zM40 260c0 162 93 292 267 292c162 0 255 -130 255 -273c0 -162 -93 -291 -267 -291c-162 0 -255 129 -255 272zM423 260c0 108 -40 172 -128 172
c-77 0 -116 -64 -116 -153c0 -107 39 -171 128 -171c78 0 116 64 116 152z" />
    <glyph glyph-name="ocircumflex" unicode="&#xf4;" horiz-adv-x="602" 
d="M40 260c0 162 93 292 267 292c162 0 255 -130 255 -273c0 -162 -93 -291 -267 -291c-162 0 -255 129 -255 272zM423 260c0 108 -40 172 -128 172c-77 0 -116 -64 -116 -153c0 -107 39 -171 128 -171c78 0 116 64 116 152zM459 593l-157 72l-155 -71v31c0 49 16 73 59 98
l97 56l95 -55c38 -22 61 -49 61 -102v-29z" />
    <glyph glyph-name="odieresis" unicode="&#xf6;" horiz-adv-x="602" 
d="M40 260c0 162 93 292 267 292c162 0 255 -130 255 -273c0 -162 -93 -291 -267 -291c-162 0 -255 129 -255 272zM423 260c0 108 -40 172 -128 172c-77 0 -116 -64 -116 -153c0 -107 39 -171 128 -171c78 0 116 64 116 152zM481 684c0 -39 -33 -72 -72 -72s-71 33 -71 72
s32 70 71 70s72 -31 72 -70zM267 684c0 -39 -33 -72 -72 -72s-71 33 -71 72s32 70 71 70s72 -31 72 -70z" />
    <glyph glyph-name="otilde" unicode="&#xf5;" horiz-adv-x="602" 
d="M40 260c0 162 93 292 267 292c162 0 255 -130 255 -273c0 -162 -93 -291 -267 -291c-162 0 -255 129 -255 272zM423 260c0 108 -40 172 -128 172c-77 0 -116 -64 -116 -153c0 -107 39 -171 128 -171c78 0 116 64 116 152zM465 711c0 -53 -36 -96 -100 -96
c-33 0 -53 14 -77 28c-22 13 -43 20 -57 20c-23 0 -40 -22 -40 -56h-25c-19 0 -38 16 -38 50c0 72 57 100 98 100c32 0 52 -13 75 -26c19 -11 46 -24 62 -24c29 0 40 16 40 54h30c16 0 32 -23 32 -50z" />
    <glyph glyph-name="uacute" unicode="&#xfa;" horiz-adv-x="604" 
d="M539 242c0 -168 -79 -254 -236 -254c-133 0 -238 88 -238 245v307h25c77 0 111 -33 111 -96v-198c0 -99 48 -139 109 -139c55 0 94 38 94 130v303h24c78 0 111 -33 111 -96v-202zM440 714c0 -29 -25 -54 -66 -71c-33 -14 -79 -24 -115 -24h-45v5c22 34 46 67 75 93
c32 29 56 48 95 48c33 0 56 -15 56 -51z" />
    <glyph glyph-name="ugrave" unicode="&#xf9;" horiz-adv-x="604" 
d="M137 714c0 36 23 51 56 51c39 0 63 -19 95 -48c29 -26 53 -59 75 -93v-5h-45c-36 0 -82 10 -115 24c-41 17 -66 42 -66 71zM539 242c0 -168 -79 -254 -236 -254c-133 0 -238 88 -238 245v307h25c77 0 111 -33 111 -96v-198c0 -99 48 -139 109 -139c55 0 94 38 94 130v303
h24c78 0 111 -33 111 -96v-202z" />
    <glyph glyph-name="ucircumflex" unicode="&#xfb;" horiz-adv-x="604" 
d="M539 242c0 -168 -79 -254 -236 -254c-133 0 -238 88 -238 245v307h25c77 0 111 -33 111 -96v-198c0 -99 48 -139 109 -139c55 0 94 38 94 130v303h24c78 0 111 -33 111 -96v-202zM455 593l-157 72l-155 -71v31c0 49 16 73 59 98l97 56l95 -55c38 -22 61 -49 61 -102v-29z
" />
    <glyph glyph-name="udieresis" unicode="&#xfc;" horiz-adv-x="604" 
d="M539 242c0 -168 -79 -254 -236 -254c-133 0 -238 88 -238 245v307h25c77 0 111 -33 111 -96v-198c0 -99 48 -139 109 -139c55 0 94 38 94 130v303h24c78 0 111 -33 111 -96v-202zM471 684c0 -39 -33 -72 -72 -72s-71 33 -71 72s32 70 71 70s72 -31 72 -70zM257 684
c0 -39 -33 -72 -72 -72s-71 33 -71 72s32 70 71 70s72 -31 72 -70z" />
    <glyph glyph-name="degree" unicode="&#xb0;" horiz-adv-x="415" 
d="M362 555c0 -85 -60 -150 -153 -150c-96 0 -156 65 -156 148c0 85 56 153 156 153h1c98 0 152 -65 152 -151zM272 555c0 37 -21 73 -63 73h-1c-41 0 -63 -37 -63 -75c0 -33 24 -69 63 -69c42 0 64 33 64 71z" />
    <glyph glyph-name="registered" unicode="&#xae;" horiz-adv-x="806" 
d="M742 332c0 -190 -154 -344 -344 -344s-344 154 -344 344s154 344 344 344s344 -154 344 -344zM676 332c0 153 -125 278 -278 278s-278 -125 -278 -278s125 -278 278 -278s278 125 278 278zM573 165c-22 -21 -33 -23 -57 -23c-45 0 -65 25 -79 54c-18 38 -26 83 -65 89
c-9 1 -16 2 -21 3v-146h-40c-44 0 -68 26 -68 61v315c29 10 86 17 116 17h43c85 0 143 -49 143 -118c0 -44 -24 -82 -73 -101c33 -16 43 -52 63 -92c14 -27 27 -45 38 -56v-3zM436 406c0 38 -18 47 -43 47h-22c-4 0 -13 -1 -20 -2v-81c12 -1 25 -1 41 -1c25 0 44 13 44 37z
" />
    <glyph glyph-name="copyright" unicode="&#xa9;" horiz-adv-x="806" 
d="M742 332c0 -190 -154 -344 -344 -344s-344 154 -344 344s154 344 344 344s344 -154 344 -344zM676 332c0 153 -125 278 -278 278s-278 -125 -278 -278s125 -278 278 -278s278 125 278 278zM545 403h-8c-24 30 -68 41 -103 41c-64 0 -110 -43 -110 -109
c0 -82 43 -119 110 -119c39 0 80 14 101 36h3h5v-37c0 -61 -79 -87 -126 -87c-66 0 -201 44 -201 196c0 58 33 206 202 206c67 0 127 -29 127 -89v-38z" />
    <glyph glyph-name="trademark" unicode="&#x2122;" horiz-adv-x="807" 
d="M773 318h-44c-36 0 -61 23 -61 66c0 32 -3 97 -7 153c-7 -23 -23 -82 -42 -136c-12 -33 -24 -65 -36 -84h-26c-36 0 -59 35 -83 114c-14 44 -24 78 -34 108c-4 -52 -7 -118 -8 -175v-47l-40 1c-32 0 -59 22 -59 58c0 103 15 230 30 310h27c57 0 92 -29 106 -61
c22 -50 41 -110 57 -162c8 22 24 81 46 134c17 41 37 79 59 90h9c53 0 82 -33 88 -84c10 -85 18 -185 18 -285zM319 647c0 -22 -24 -52 -58 -52h-45v-282h-46c-32 0 -58 16 -58 54v228h-101v39c0 22 20 50 59 50h249v-37z" />
    <glyph glyph-name="plusminus" unicode="&#xb1;" 
d="M555 424c0 -36 -28 -65 -73 -65h-130v-179h-48c-33 0 -67 28 -67 80v99h-207v49c0 33 30 64 71 64h136v159h57c29 0 58 -26 58 -65v-94h203v-48zM535 45c0 -22 -24 -45 -56 -45h-435v46c0 29 23 52 65 52h426v-53z" />
    <glyph glyph-name="mu" unicode="&#xb5;" 
d="M535 248c0 -165 -82 -254 -206 -254c-61 0 -107 26 -132 75v-222l-49 -1c-49 -1 -84 29 -84 85v608h26c68 0 111 -25 111 -96v-191c0 -73 26 -139 107 -139c55 0 92 38 92 130v296h24c78 0 111 -33 111 -96v-195z" />
    <glyph glyph-name="logicalnot" unicode="&#xac;" horiz-adv-x="584" 
d="M557 443v-357h-129v228h-400v129h529z" />
    <glyph glyph-name="Agrave" unicode="&#xc0;" horiz-adv-x="622" 
d="M612 0h-56c-57 0 -87 33 -92 66c-6 45 -12 80 -19 109h-273c-14 -58 -26 -117 -36 -175h-53c-45 0 -63 24 -63 66c0 99 128 502 233 619h56c55 0 92 -30 111 -63c62 -111 165 -406 192 -622zM414 284c-23 96 -70 211 -106 275c-40 -71 -83 -180 -106 -275h212zM137 844
c0 36 23 51 56 51c39 0 63 -19 95 -48c29 -26 53 -59 75 -93v-5h-45c-36 0 -82 10 -115 24c-41 17 -66 42 -66 71z" />
    <glyph glyph-name="Atilde" unicode="&#xc3;" horiz-adv-x="622" 
d="M612 0h-56c-57 0 -87 33 -92 66c-6 45 -12 80 -19 109h-273c-14 -58 -26 -117 -36 -175h-53c-45 0 -63 24 -63 66c0 99 128 502 233 619h56c55 0 92 -30 111 -63c62 -111 165 -406 192 -622zM414 284c-23 96 -70 211 -106 275c-40 -71 -83 -180 -106 -275h212zM471 849
c0 -53 -36 -96 -100 -96c-33 0 -53 14 -77 28c-22 13 -43 20 -57 20c-23 0 -40 -22 -40 -56h-25c-19 0 -38 16 -38 50c0 72 57 100 98 100c32 0 52 -13 75 -26c19 -11 46 -24 62 -24c29 0 40 16 40 54h30c16 0 32 -23 32 -50z" />
    <glyph glyph-name="Otilde" unicode="&#xd5;" horiz-adv-x="725" 
d="M683 353c0 -208 -119 -365 -328 -365c-173 0 -313 139 -313 344c0 213 120 365 328 365c166 0 313 -127 313 -344zM542 334c0 161 -69 242 -185 242c-101 0 -174 -83 -174 -223c0 -165 60 -246 185 -246c106 0 174 76 174 227zM515 851c0 -53 -36 -96 -100 -96
c-33 0 -53 14 -77 28c-22 13 -43 20 -57 20c-23 0 -40 -22 -40 -56h-25c-19 0 -38 16 -38 50c0 72 57 100 98 100c32 0 52 -13 75 -26c19 -11 46 -24 62 -24c29 0 40 16 40 54h30c16 0 32 -23 32 -50z" />
    <glyph glyph-name="divide" unicode="&#xf7;" horiz-adv-x="222" 
 />
    <glyph glyph-name="ydieresis" unicode="&#xff;" horiz-adv-x="508" 
d="M374 116c-100 -236 -153 -291 -250 -291c-50 0 -94 33 -94 83v26l76 5c49 3 66 23 95 99c-71 107 -173 375 -191 502h71c37 0 71 -25 78 -63c19 -104 59 -216 108 -311c44 101 93 264 105 374h58c43 0 63 -19 63 -63c0 -57 -94 -303 -119 -361zM441 684
c0 -39 -33 -72 -72 -72s-71 33 -71 72s32 70 71 70s72 -31 72 -70zM227 684c0 -39 -33 -72 -72 -72s-71 33 -71 72s32 70 71 70s72 -31 72 -70z" />
    <glyph glyph-name="Ydieresis" unicode="&#x178;" horiz-adv-x="571" 
d="M556 632c0 -53 -140 -268 -202 -340v-292h-57c-40 0 -83 30 -83 90v202c-80 104 -166 266 -209 393h64c54 0 83 -27 92 -48c34 -80 88 -178 131 -239c44 61 117 184 148 287h60c36 0 56 -21 56 -53zM461 820c0 -39 -33 -72 -72 -72s-71 33 -71 72s32 70 71 70
s72 -31 72 -70zM247 820c0 -39 -33 -72 -72 -72s-71 33 -71 72s32 70 71 70s72 -31 72 -70z" />
    <glyph glyph-name="Acircumflex" unicode="&#xc2;" horiz-adv-x="622" 
d="M612 0h-56c-57 0 -87 33 -92 66c-6 45 -12 80 -19 109h-273c-14 -58 -26 -117 -36 -175h-53c-45 0 -63 24 -63 66c0 99 128 502 233 619h56c55 0 92 -30 111 -63c62 -111 165 -406 192 -622zM414 284c-23 96 -70 211 -106 275c-40 -71 -83 -180 -106 -275h212zM459 728
l-157 72l-155 -71v31c0 49 16 73 59 98l97 56l95 -55c38 -22 61 -49 61 -102v-29z" />
    <glyph glyph-name="Ecircumflex" unicode="&#xca;" horiz-adv-x="560" 
d="M538 128l-1 -48c-1 -55 -29 -85 -149 -85h-73c-167 0 -255 92 -255 267v127c0 65 5 138 13 193c11 82 49 103 105 103h358v-46c0 -48 -29 -72 -92 -72h-235c-7 -50 -10 -117 -10 -160h264v-49c0 -45 -28 -63 -83 -63h-181v-40c0 -119 39 -142 145 -142h44
c50 0 101 4 150 15zM459 728l-157 72l-155 -71v31c0 49 16 73 59 98l97 56l95 -55c38 -22 61 -49 61 -102v-29z" />
    <glyph glyph-name="Aacute" unicode="&#xc1;" horiz-adv-x="622" 
d="M612 0h-56c-57 0 -87 33 -92 66c-6 45 -12 80 -19 109h-273c-14 -58 -26 -117 -36 -175h-53c-45 0 -63 24 -63 66c0 99 128 502 233 619h56c55 0 92 -30 111 -63c62 -111 165 -406 192 -622zM414 284c-23 96 -70 211 -106 275c-40 -71 -83 -180 -106 -275h212zM466 844
c0 -29 -25 -54 -66 -71c-33 -14 -79 -24 -115 -24h-45v5c22 34 46 67 75 93c32 29 56 48 95 48c33 0 56 -15 56 -51z" />
    <glyph glyph-name="Edieresis" unicode="&#xcb;" horiz-adv-x="560" 
d="M538 128l-1 -48c-1 -55 -29 -85 -149 -85h-73c-167 0 -255 92 -255 267v127c0 65 5 138 13 193c11 82 49 103 105 103h358v-46c0 -48 -29 -72 -92 -72h-235c-7 -50 -10 -117 -10 -160h264v-49c0 -45 -28 -63 -83 -63h-181v-40c0 -119 39 -142 145 -142h44
c50 0 101 4 150 15zM471 820c0 -39 -33 -72 -72 -72s-71 33 -71 72s32 70 71 70s72 -31 72 -70zM257 820c0 -39 -33 -72 -72 -72s-71 33 -71 72s32 70 71 70s72 -31 72 -70z" />
    <glyph glyph-name="Egrave" unicode="&#xc8;" horiz-adv-x="560" 
d="M538 128l-1 -48c-1 -55 -29 -85 -149 -85h-73c-167 0 -255 92 -255 267v127c0 65 5 138 13 193c11 82 49 103 105 103h358v-46c0 -48 -29 -72 -92 -72h-235c-7 -50 -10 -117 -10 -160h264v-49c0 -45 -28 -63 -83 -63h-181v-40c0 -119 39 -142 145 -142h44
c50 0 101 4 150 15zM177 844c0 36 23 51 56 51c39 0 63 -19 95 -48c29 -26 53 -59 75 -93v-5h-45c-36 0 -82 10 -115 24c-41 17 -66 42 -66 71z" />
    <glyph glyph-name="Iacute" unicode="&#xcd;" horiz-adv-x="272" 
d="M203 0h-52c-40 0 -83 31 -83 91v594h62c35 0 73 -29 73 -73v-612zM286 844c0 -29 -25 -54 -66 -71c-33 -14 -79 -24 -115 -24h-45v5c22 34 46 67 75 93c32 29 56 48 95 48c33 0 56 -15 56 -51z" />
    <glyph glyph-name="Icircumflex" unicode="&#xce;" horiz-adv-x="272" 
d="M203 0h-52c-40 0 -83 31 -83 91v594h62c35 0 73 -29 73 -73v-612zM289 745l-157 72l-155 -71v31c0 49 16 73 59 98l97 56l95 -55c38 -22 61 -49 61 -102v-29z" />
    <glyph glyph-name="Idieresis" unicode="&#xcf;" horiz-adv-x="272" 
d="M203 0h-52c-40 0 -83 31 -83 91v594h62c35 0 73 -29 73 -73v-612zM311 820c0 -39 -33 -72 -72 -72s-71 33 -71 72s32 70 71 70s72 -31 72 -70zM97 820c0 -39 -33 -72 -72 -72s-71 33 -71 72s32 70 71 70s72 -31 72 -70z" />
    <glyph glyph-name="Igrave" unicode="&#xcc;" horiz-adv-x="272" 
d="M203 0h-52c-40 0 -83 31 -83 91v594h62c35 0 73 -29 73 -73v-612zM-13 844c0 36 23 51 56 51c39 0 63 -19 95 -48c29 -26 53 -59 75 -93v-5h-45c-36 0 -82 10 -115 24c-41 17 -66 42 -66 71z" />
    <glyph glyph-name="Oacute" unicode="&#xd3;" horiz-adv-x="725" 
d="M683 353c0 -208 -119 -365 -328 -365c-173 0 -313 139 -313 344c0 213 120 365 328 365c166 0 313 -127 313 -344zM542 334c0 161 -69 242 -185 242c-101 0 -174 -83 -174 -223c0 -165 60 -246 185 -246c106 0 174 76 174 227zM506 844c0 -29 -25 -54 -66 -71
c-33 -14 -79 -24 -115 -24h-45v5c22 34 46 67 75 93c32 29 56 48 95 48c33 0 56 -15 56 -51z" />
    <glyph glyph-name="Ocircumflex" unicode="&#xd4;" horiz-adv-x="725" 
d="M683 353c0 -208 -119 -365 -328 -365c-173 0 -313 139 -313 344c0 213 120 365 328 365c166 0 313 -127 313 -344zM542 334c0 161 -69 242 -185 242c-101 0 -174 -83 -174 -223c0 -165 60 -246 185 -246c106 0 174 76 174 227zM519 727l-157 72l-155 -71v31
c0 49 16 73 59 98l97 56l95 -55c38 -22 61 -49 61 -102v-29z" />
    <glyph glyph-name="Ograve" unicode="&#xd2;" horiz-adv-x="725" 
d="M683 353c0 -208 -119 -365 -328 -365c-173 0 -313 139 -313 344c0 213 120 365 328 365c166 0 313 -127 313 -344zM542 334c0 161 -69 242 -185 242c-101 0 -174 -83 -174 -223c0 -165 60 -246 185 -246c106 0 174 76 174 227zM197 844c0 36 23 51 56 51
c39 0 63 -19 95 -48c29 -26 53 -59 75 -93v-5h-45c-36 0 -82 10 -115 24c-41 17 -66 42 -66 71z" />
    <glyph glyph-name="Uacute" unicode="&#xda;" horiz-adv-x="663" 
d="M612 309c0 -201 -93 -321 -289 -321c-166 0 -273 111 -273 309v388h53c43 0 85 -31 85 -126v-253c0 -128 43 -190 149 -190c97 0 137 64 137 185v384h52c52 0 86 -38 86 -122v-254zM456 844c0 -29 -25 -54 -66 -71c-33 -14 -79 -24 -115 -24h-45v5c22 34 46 67 75 93
c32 29 56 48 95 48c33 0 56 -15 56 -51z" />
    <glyph glyph-name="Ucircumflex" unicode="&#xdb;" horiz-adv-x="663" 
d="M612 309c0 -201 -93 -321 -289 -321c-166 0 -273 111 -273 309v388h53c43 0 85 -31 85 -126v-253c0 -128 43 -190 149 -190c97 0 137 64 137 185v384h52c52 0 86 -38 86 -122v-254zM469 727l-157 72l-155 -71v31c0 49 16 73 59 98l97 56l95 -55c38 -22 61 -49 61 -102
v-29z" />
    <glyph glyph-name="Ugrave" unicode="&#xd9;" horiz-adv-x="663" 
d="M612 309c0 -201 -93 -321 -289 -321c-166 0 -273 111 -273 309v388h53c43 0 85 -31 85 -126v-253c0 -128 43 -190 149 -190c97 0 137 64 137 185v384h52c52 0 86 -38 86 -122v-254zM157 844c0 36 23 51 56 51c39 0 63 -19 95 -48c29 -26 53 -59 75 -93v-5h-45
c-36 0 -82 10 -115 24c-41 17 -66 42 -66 71z" />
  </font>
</defs>
</svg>
