<?xml version="1.0" standalone="no"?>
<!DOCTYPE svg PUBLIC "-//W3C//DTD SVG 1.1//EN" "http://www.w3.org/Graphics/SVG/1.1/DTD/svg11.dtd" >
<svg>
<metadata>
Created by FontForge 20120731 at Mon Jul  8 03:15:06 2019
 By www
&#60; info@fontfont.de &#62; Copyright Evert Bloemsma, 1998. Published by FontShop International.  FontFont Release 22
</metadata>
<defs>
<font id="Cocon-RegularCondensed" horiz-adv-x="490" >
  <font-face 
    font-family="Cocon"
    font-weight="500"
    font-stretch="condensed"
    units-per-em="1000"
    panose-1="0 0 0 0 0 0 0 0 0 0"
    ascent="800"
    descent="-200"
    x-height="540"
    cap-height="685"
    bbox="-34 -290 1182 904"
    underline-thickness="20"
    underline-position="-156"
    stemh="109"
    stemv="120"
    unicode-range="U+0020-FB02"
  />
<missing-glyph horiz-adv-x="500" 
 />
    <glyph glyph-name=".notdef" horiz-adv-x="500" 
 />
    <glyph glyph-name="space" unicode=" " horiz-adv-x="199" 
 />
    <glyph glyph-name="exclam" unicode="!" horiz-adv-x="261" 
d="M185 609l-12 -393h-38c-37 0 -60 27 -61 70l-13 399h56c42 0 69 -28 68 -76zM131 151c42 0 76 -34 76 -76s-34 -76 -76 -76s-75 34 -75 76s33 76 75 76z" />
    <glyph glyph-name="quotedbl" unicode="&#x22;" horiz-adv-x="369" 
d="M331 613l-15 -182h-28c-36 0 -54 29 -58 67l-18 194h53c42 0 71 -27 66 -79zM167 613l-15 -182h-28c-37 0 -54 29 -58 67l-18 194h53c41 0 70 -27 66 -79z" />
    <glyph glyph-name="numbersign" unicode="#" 
d="M480 473c0 -36 -18 -55 -55 -55h-33l-21 -147h75v-28c0 -36 -19 -55 -56 -55h-31l-26 -188h-34c-35 0 -51 20 -50 51c0 5 1 11 2 16l17 121h-92l-26 -188h-34c-34 0 -50 22 -49 53c0 5 0 10 1 15l17 120h-76v29c0 33 18 54 55 54h33l21 147h-74v28c0 36 21 55 56 55h30
l27 185h31c35 0 53 -21 52 -53c0 -3 0 -6 -1 -10l-18 -122h92l27 185h31c32 0 53 -21 52 -58c0 -5 -1 -14 -3 -24l-15 -103h75v-28zM301 418h-92l-21 -147h92z" />
    <glyph glyph-name="dollar" unicode="$" 
d="M288 -6v-118h-34c-33 0 -53 14 -53 54v61c-101 9 -153 60 -153 134v56h5c33 -51 96 -79 163 -79c76 0 112 32 112 94c0 45 -24 72 -121 106c-103 36 -167 79 -167 179c0 112 70 182 161 204v115h37c29 0 50 -18 50 -51v-58c97 -7 146 -59 146 -120v-61h-6
c-33 52 -88 71 -153 71c-75 0 -114 -35 -114 -90c0 -34 21 -61 119 -97c111 -40 169 -105 169 -187c0 -114 -61 -197 -161 -213z" />
    <glyph glyph-name="percent" unicode="%" horiz-adv-x="860" 
d="M343 477c0 -142 -54 -229 -156 -229c-91 0 -151 87 -151 220c0 143 57 229 157 229c93 0 150 -87 150 -220zM575 636c0 -12 -5 -33 -10 -47l-221 -589h-30c-24 0 -41 19 -41 49c0 14 4 30 11 49l221 587h30c21 0 40 -17 40 -49zM824 216c0 -142 -54 -229 -156 -229
c-91 0 -151 87 -151 220c0 143 56 229 156 229c93 0 151 -87 151 -220zM245 466c0 100 -21 134 -59 134c-30 0 -52 -35 -52 -122c0 -94 24 -134 59 -134c32 0 52 34 52 122zM726 205c0 100 -21 134 -59 134c-30 0 -52 -36 -52 -122c0 -94 24 -134 59 -134c32 0 52 34 52 122
z" />
    <glyph glyph-name="ampersand" unicode="&#x26;" horiz-adv-x="616" 
d="M586 71c0 -44 -19 -77 -66 -77c-30 0 -51 5 -75 29l-36 36c-35 -45 -84 -71 -161 -71c-118 0 -198 60 -198 195c0 77 54 155 115 200c-30 45 -55 88 -55 136c0 102 57 178 171 178c96 0 152 -59 152 -158c0 -72 -55 -140 -130 -191c26 -42 74 -106 105 -143
c41 59 56 123 56 181h30c30 0 53 -28 53 -68c0 -56 -39 -134 -71 -183c41 -49 67 -61 94 -63zM330 534c0 50 -21 67 -53 67c-31 0 -57 -19 -57 -74c0 -39 16 -67 37 -100c47 33 73 65 73 107zM343 128c-34 44 -94 116 -125 167c-28 -25 -53 -60 -53 -105
c0 -72 32 -102 94 -102c35 0 67 15 84 40z" />
    <glyph glyph-name="quoteright" unicode="&#x2019;" horiz-adv-x="223" 
d="M191 614c0 -107 -66 -176 -161 -180v9c28 25 51 62 51 97c0 20 -12 42 -23 52c-9 9 -25 27 -25 52c0 46 32 75 77 75c47 0 81 -38 81 -105z" />
    <glyph glyph-name="parenleft" unicode="(" horiz-adv-x="309" 
d="M301 720v-4c-79 -98 -141 -235 -141 -430c0 -211 65 -368 142 -451v-4h-48c-41 0 -74 19 -101 48c-47 51 -115 203 -115 387c0 183 57 335 118 408c18 22 54 46 92 46h53z" />
    <glyph glyph-name="parenright" unicode=")" horiz-adv-x="309" 
d="M8 -169v4c79 97 141 234 141 430c0 211 -64 367 -142 451v4h48c42 0 75 -20 101 -48c47 -51 115 -203 115 -387c0 -183 -57 -335 -118 -408c-18 -22 -53 -46 -92 -46h-53z" />
    <glyph glyph-name="asterisk" unicode="*" horiz-adv-x="550" 
d="M349 647c0 -22 -8 -43 -18 -64c-7 -15 -15 -31 -19 -46c48 2 121 53 142 95c19 -26 39 -58 39 -91c0 -45 -27 -73 -72 -73c-22 0 -43 5 -65 5c-10 0 -19 -1 -29 -2c9 -10 16 -22 25 -32c28 -33 62 -73 109 -72c-18 -34 -44 -76 -87 -76c-22 0 -50 15 -62 33
s-17 57 -23 79c-3 12 -11 24 -14 36c-53 -60 -59 -96 -59 -151c-70 0 -103 28 -103 81c0 36 25 57 56 71c21 9 35 21 48 33c-34 14 -70 24 -107 24c-21 0 -43 -2 -62 -11c0 67 30 123 89 123c21 0 35 -8 52 -29c14 -18 34 -35 57 -47c1 11 2 22 2 33c0 46 -15 109 -49 142
c17 6 47 13 65 13c50 1 85 -25 85 -74z" />
    <glyph glyph-name="plus" unicode="+" 
d="M466 289c0 -27 -23 -52 -60 -52h-108v-205h-42c-30 0 -55 27 -55 66v139h-176v47c0 24 20 48 52 48h124v191h50c22 0 47 -20 47 -56v-135h168v-43z" />
    <glyph glyph-name="comma" unicode="," horiz-adv-x="271" 
d="M216 41c0 -107 -66 -176 -161 -180v9c28 25 51 62 51 97c0 20 -12 42 -23 52c-9 9 -25 27 -25 52c0 46 32 75 77 75c47 0 81 -38 81 -105z" />
    <glyph glyph-name="hyphen" unicode="-" horiz-adv-x="304" 
d="M266 314c0 -30 -22 -57 -55 -57h-174v34c0 36 22 59 61 59h168v-36z" />
    <glyph glyph-name="period" unicode="." horiz-adv-x="267" 
d="M133 152c42 0 76 -34 76 -76s-34 -76 -76 -76s-75 34 -75 76s33 76 75 76z" />
    <glyph glyph-name="slash" unicode="/" horiz-adv-x="359" 
d="M339 670c0 -12 -3 -25 -8 -38l-238 -632h-29c-22 0 -42 18 -42 52c0 14 3 31 10 49l235 619h30c26 0 42 -22 42 -50z" />
    <glyph glyph-name="zero" unicode="0" 
d="M241 -12c-121 0 -212 115 -212 345c0 254 88 364 222 364c124 0 211 -112 211 -345c0 -236 -73 -364 -221 -364zM241 587c-51 0 -91 -66 -91 -235c0 -209 44 -254 101 -254c47 0 91 51 91 234c0 196 -31 255 -101 255z" />
    <glyph glyph-name="one" unicode="1" horiz-adv-x="380" 
d="M239 0c-43 0 -73 27 -73 77v479l-70 -31c-50 -22 -86 -2 -95 37l-6 27l121 64c51 27 76 32 109 32c36 0 65 -30 65 -68v-617h-51z" />
    <glyph glyph-name="two" unicode="2" 
d="M376 0h-272c-34 0 -60 24 -60 61s16 83 85 158l106 116c52 57 82 103 82 149c0 71 -42 100 -102 100c-80 0 -123 -27 -157 -83h-5v47c0 80 53 149 194 149c117 0 197 -86 197 -200c0 -79 -23 -124 -114 -221l-102 -109c-21 -23 -36 -42 -42 -56h267v-51
c0 -41 -32 -60 -77 -60z" />
    <glyph glyph-name="three" unicode="3" 
d="M201 -12c-98 0 -168 51 -168 126v57h5c32 -42 86 -72 165 -72c66 0 102 44 102 98c0 65 -31 92 -98 96c-47 3 -69 21 -69 53v41c18 2 38 2 59 3c77 4 104 37 104 92c0 69 -36 105 -108 105c-69 0 -117 -24 -151 -76h-5v56c0 60 60 130 176 130c118 0 211 -74 211 -191
c0 -91 -44 -144 -100 -162c57 -19 103 -78 103 -137c0 -134 -80 -219 -226 -219z" />
    <glyph glyph-name="four" unicode="4" 
d="M419 162h-30v-162h-48c-44 0 -72 24 -72 74v88h-190c-38 0 -65 28 -65 59c0 34 4 49 14 73c44 102 163 320 235 391h51c42 0 75 -29 75 -92v-323h85v-54c0 -33 -22 -54 -55 -54zM267 546c-39 -63 -108 -202 -139 -275h139v275z" />
    <glyph glyph-name="five" unicode="5" 
d="M227 -12c-105 0 -177 42 -177 126v50h5c33 -41 83 -66 162 -66c81 0 112 40 112 112s-38 105 -131 105c-45 0 -94 -11 -138 -27v287c0 75 26 110 91 110h284v-31c0 -45 -30 -79 -79 -79h-179v-166c19 5 43 8 69 8c112 0 205 -66 205 -200c0 -149 -91 -229 -224 -229z" />
    <glyph glyph-name="six" unicode="6" 
d="M248 -12c-118 0 -206 97 -206 324c0 260 106 385 259 385c79 0 133 -49 133 -113v-42h-5c-23 29 -64 47 -128 47c-80 0 -136 -65 -139 -216c17 37 61 69 115 69c106 0 184 -77 184 -217c0 -112 -61 -237 -213 -237zM255 335c-58 0 -91 -46 -91 -97c0 -88 35 -142 91 -142
c55 0 85 39 85 117c0 92 -36 122 -85 122z" />
    <glyph glyph-name="seven" unicode="7" 
d="M404 461l-84 -189c-29 -65 -49 -143 -49 -188v-84h-53c-34 0 -70 17 -70 83c0 67 24 135 62 219l77 169c15 32 32 78 37 102h-281v37c0 46 30 75 76 75h252c56 0 84 -29 84 -71c0 -32 -22 -87 -51 -153z" />
    <glyph glyph-name="eight" unicode="8" 
d="M236 -12c-126 0 -195 85 -195 196c0 71 44 135 94 157c-52 23 -90 82 -90 164c0 115 94 192 200 192c117 0 200 -78 200 -200c0 -83 -43 -128 -94 -148c52 -22 98 -82 98 -157c0 -121 -68 -204 -213 -204zM240 584c-49 0 -75 -36 -75 -88c0 -58 28 -99 83 -99
c47 0 76 39 76 91c0 64 -26 96 -84 96zM240 294c-46 0 -77 -41 -77 -91c0 -70 28 -105 85 -105c49 0 79 33 79 97c0 66 -32 99 -87 99z" />
    <glyph glyph-name="nine" unicode="9" 
d="M218 -12c-83 0 -155 45 -155 116v50h8c29 -36 74 -57 140 -57c62 0 106 42 111 191c-18 -38 -52 -60 -96 -60c-114 0 -197 80 -197 220c0 134 67 249 215 249c123 0 201 -92 201 -325c0 -270 -74 -384 -227 -384zM231 590c-49 0 -79 -47 -79 -127c0 -93 32 -128 85 -128
s85 41 85 102c0 120 -33 153 -91 153z" />
    <glyph glyph-name="colon" unicode=":" horiz-adv-x="270" 
d="M133 541c42 0 76 -34 76 -76s-34 -76 -76 -76s-75 34 -75 76s33 76 75 76zM133 152c42 0 76 -34 76 -76c0 -41 -34 -76 -76 -76s-75 35 -75 76c0 42 33 76 75 76z" />
    <glyph glyph-name="semicolon" unicode=";" horiz-adv-x="270" 
d="M216 41c0 -107 -66 -176 -161 -180v9c28 25 51 62 51 97c0 20 -12 42 -23 52c-9 9 -25 27 -25 52c0 46 32 75 77 75c47 0 81 -38 81 -105zM133 541c42 0 76 -34 76 -76s-34 -76 -76 -76s-75 34 -75 76s33 76 75 76z" />
    <glyph glyph-name="less" unicode="&#x3c;" 
d="M423 502c0 -38 -16 -69 -62 -89c-46 -21 -141 -70 -208 -114c69 -52 204 -128 267 -160v-29c0 -32 -25 -44 -47 -44c-15 0 -42 8 -59 16c-73 36 -210 121 -288 188v25c0 30 18 47 47 66c73 48 238 139 350 183v-42z" />
    <glyph glyph-name="equal" unicode="=" 
d="M440 420c0 -30 -28 -51 -59 -51h-333v38c0 30 23 53 59 53h333v-40zM440 212c0 -33 -29 -51 -59 -51h-333v37c0 30 24 52 59 52h333v-38z" />
    <glyph glyph-name="greater" unicode="&#x3e;" 
d="M50 104c0 39 17 69 62 89c47 21 141 70 208 114c-69 52 -204 128 -267 160v29c0 32 25 44 47 44c15 0 42 -8 59 -16c73 -36 210 -121 288 -188v-25c0 -30 -18 -47 -47 -66c-73 -48 -238 -139 -350 -183v42z" />
    <glyph glyph-name="question" unicode="?" horiz-adv-x="404" 
d="M361 531c0 -61 -26 -102 -62 -147l-60 -74c-17 -21 -22 -34 -22 -62v-45h-46c-29 0 -53 22 -53 52c0 35 9 71 39 109l63 79c15 19 23 44 23 76c0 51 -29 77 -79 77c-64 0 -98 -25 -119 -64h-5v46c0 55 48 119 147 119c110 0 174 -73 174 -166zM181 152
c41 0 76 -34 76 -76s-35 -76 -76 -76c-42 0 -75 34 -75 76s33 76 75 76z" />
    <glyph glyph-name="at" unicode="@" horiz-adv-x="659" 
d="M619 417c0 -154 -73 -261 -170 -261c-41 0 -61 28 -71 70c-23 -44 -52 -71 -95 -71c-55 0 -106 67 -106 166c0 140 77 236 181 236c50 0 93 -30 114 -77c-13 -88 -23 -164 -23 -198c0 -30 7 -44 19 -44c25 0 67 50 67 175c0 132 -66 231 -184 231
c-119 0 -225 -119 -225 -316c0 -169 84 -264 198 -264c52 0 104 8 150 35v-31c0 -32 -18 -52 -45 -64c-21 -9 -64 -18 -119 -18c-144 0 -270 128 -270 334c0 213 125 402 319 402c153 0 260 -130 260 -305zM380 459c-8 8 -19 13 -35 13c-31 0 -70 -58 -70 -144
c0 -61 13 -83 32 -83c41 0 56 49 73 214z" />
    <glyph glyph-name="A" unicode="A" horiz-adv-x="524" 
d="M512 0h-45c-49 0 -81 28 -85 61c-5 44 -14 92 -18 114h-217c-12 -59 -20 -118 -28 -175h-53c-37 0 -51 21 -51 61c0 97 110 508 191 624h50c46 0 79 -33 95 -66c52 -109 139 -425 161 -619zM342 270c-18 92 -55 218 -86 292c-33 -79 -67 -194 -86 -292h172z" />
    <glyph glyph-name="B" unicode="B" horiz-adv-x="514" 
d="M474 209c0 -136 -87 -215 -196 -215h-64c-108 0 -158 59 -158 157v508c28 12 103 31 150 31h68c110 0 190 -68 190 -181c0 -77 -35 -127 -91 -148c58 -21 101 -88 101 -152zM175 577v-173h81c48 0 88 23 88 91c0 65 -40 87 -84 87h-41c-13 0 -30 -2 -44 -5zM260 306h-84
v-154c0 -28 20 -50 47 -50h42c58 0 89 36 89 103c0 79 -32 101 -94 101z" />
    <glyph glyph-name="C" unicode="C" horiz-adv-x="503" 
d="M483 510h-6c-36 52 -84 75 -146 75c-92 0 -166 -88 -166 -231c0 -178 77 -254 166 -254c76 0 118 27 147 68h5v-46c0 -81 -64 -134 -170 -134c-115 0 -271 106 -271 347c0 209 110 362 283 362c95 0 158 -56 158 -140v-47z" />
    <glyph glyph-name="D" unicode="D" horiz-adv-x="569" 
d="M533 352c0 -220 -109 -358 -267 -358h-52c-96 0 -158 46 -158 147v519c29 13 99 29 141 29h63c142 0 273 -105 273 -337zM411 335c0 169 -62 244 -163 244h-31c-13 0 -29 -3 -41 -7v-408c0 -42 15 -60 57 -60h22c88 0 156 80 156 231z" />
    <glyph glyph-name="E" unicode="E" horiz-adv-x="471" 
d="M442 122v-44c0 -49 -32 -84 -120 -84h-57c-141 0 -215 85 -215 268v128c0 65 5 149 11 200c9 74 41 95 86 95h303v-47c0 -41 -26 -63 -73 -63h-197c-7 -52 -10 -128 -10 -177h216v-46c0 -38 -24 -59 -66 -59h-150v-38c0 -121 31 -151 119 -151h37c40 0 89 7 116 18z" />
    <glyph glyph-name="F" unicode="F" horiz-adv-x="412" 
d="M406 637c0 -30 -20 -62 -62 -62h-166v-176h194v-40c0 -33 -28 -60 -59 -60h-132v-299h-53c-40 0 -70 23 -70 71v520c0 73 28 94 92 94h256v-48z" />
    <glyph glyph-name="G" unicode="G" horiz-adv-x="548" 
d="M508 151c0 -103 -49 -163 -187 -163c-151 0 -281 134 -281 345c0 232 140 364 307 364c106 0 154 -65 154 -127v-46h-5c-34 42 -92 61 -158 61c-89 0 -175 -83 -175 -234c0 -175 76 -251 168 -251c51 0 64 16 64 65v60c0 47 -8 89 -8 95h59c37 0 62 -29 62 -58v-111z" />
    <glyph glyph-name="H" unicode="H" horiz-adv-x="563" 
d="M505 0h-43c-38 0 -77 28 -77 79v220h-206v-299h-47c-37 0 -74 26 -74 79v605h50c40 0 70 -29 70 -70v-212h207v282h53c34 0 67 -27 67 -70v-614z" />
    <glyph glyph-name="I" unicode="I" horiz-adv-x="244" 
d="M183 0h-45c-39 0 -77 26 -77 80v605h52c37 0 70 -27 70 -71v-614z" />
    <glyph glyph-name="J" unicode="J" horiz-adv-x="344" 
d="M284 181c0 -115 -56 -191 -177 -191c-64 0 -104 34 -104 74v56h6c21 -11 52 -21 81 -21c45 0 73 19 73 87v499h38c53 0 83 -27 83 -82v-422z" />
    <glyph glyph-name="K" unicode="K" horiz-adv-x="501" 
d="M497 54c-9 -42 -31 -59 -71 -59c-33 0 -58 12 -76 38c-57 84 -135 233 -173 309v-342h-37c-55 0 -82 30 -82 81v604h38c54 0 81 -26 81 -78v-225c48 88 120 217 155 260c29 35 43 43 83 43h77v-5c-46 -59 -148 -219 -201 -314c46 -85 115 -207 149 -254
c20 -28 39 -52 57 -58z" />
    <glyph glyph-name="L" unicode="L" horiz-adv-x="427" 
d="M425 84c0 -74 -45 -90 -114 -90h-54c-124 0 -194 74 -194 217v474h44c47 0 76 -23 76 -85v-376c0 -90 29 -120 96 -120h34c48 0 91 10 112 20v-40z" />
    <glyph glyph-name="M" unicode="M" horiz-adv-x="777" 
d="M725 0h-48c-49 0 -78 22 -78 79c0 82 -8 311 -21 415c-6 -16 -14 -42 -22 -71l-84 -308c-9 -33 -29 -89 -43 -115h-34c-39 0 -74 34 -109 162l-73 267c-6 22 -13 44 -20 65c-14 -118 -25 -370 -25 -494h-43c-46 0 -73 33 -73 79c0 204 25 464 46 606h26
c75 0 136 -45 164 -147l74 -269c10 -35 17 -54 26 -100c6 29 15 63 26 100l68 240c24 86 55 155 80 176h15c66 0 105 -59 115 -138c21 -170 33 -385 33 -547z" />
    <glyph glyph-name="N" unicode="N" horiz-adv-x="576" 
d="M518 0h-46c-56 0 -109 32 -163 171l-106 272c-8 20 -19 46 -29 71v-514h-48c-33 0 -68 29 -68 81v604h56c78 0 130 -53 162 -139l93 -248c12 -32 26 -69 36 -107v494h52c31 0 61 -26 61 -67v-618z" />
    <glyph glyph-name="O" unicode="O" horiz-adv-x="590" 
d="M548 353c0 -233 -102 -365 -259 -365c-133 0 -247 126 -247 345c0 220 89 364 260 364c134 0 246 -119 246 -344zM429 334c0 177 -48 252 -138 252c-73 0 -130 -77 -130 -233c0 -187 56 -254 141 -254c72 0 127 73 127 235z" />
    <glyph glyph-name="P" unicode="P" horiz-adv-x="474" 
d="M469 481c0 -143 -86 -231 -202 -231c-34 0 -66 4 -90 17v-267h-45c-44 0 -74 25 -74 83v581c35 10 113 27 155 27h56c112 0 200 -78 200 -210zM349 466c0 90 -43 117 -99 117h-20c-15 0 -42 -4 -53 -7v-210c20 -8 53 -10 79 -10c53 0 93 36 93 110z" />
    <glyph glyph-name="Q" unicode="Q" horiz-adv-x="596" 
d="M238 -9c-140 54 -197 192 -197 341c0 209 81 365 261 365c118 0 245 -105 245 -346c0 -184 -58 -294 -150 -321c38 -15 117 -22 177 -24v-46c0 -25 -19 -48 -48 -48c-58 0 -174 27 -288 79zM429 333c0 186 -52 254 -140 254c-90 0 -127 -102 -127 -236
c0 -185 58 -254 144 -254c78 0 123 90 123 236z" />
    <glyph glyph-name="R" unicode="R" horiz-adv-x="517" 
d="M509 16c-13 -15 -42 -19 -66 -19c-36 0 -65 16 -78 53l-48 136c-22 64 -43 80 -73 86c-28 6 -53 7 -65 9v-281h-45c-50 0 -75 33 -75 82v581c28 11 107 28 148 28h63c115 0 204 -77 204 -197c0 -92 -56 -158 -123 -173c35 -17 59 -56 75 -101l39 -108
c13 -37 26 -66 44 -96zM352 480c0 84 -40 103 -88 103h-32c-9 0 -37 -3 -53 -8v-190c21 -5 55 -7 87 -7c45 0 86 38 86 102z" />
    <glyph glyph-name="S" unicode="S" horiz-adv-x="481" 
d="M447 203c0 -129 -81 -215 -220 -215c-116 0 -179 54 -179 141v47h5c33 -46 93 -78 161 -78c78 0 112 33 112 95c0 57 -29 78 -130 109c-96 30 -164 89 -164 180c0 112 77 215 224 215c124 0 172 -59 172 -128v-58h-5c-34 50 -84 76 -150 76c-76 0 -120 -35 -120 -93
c0 -49 32 -74 122 -102c100 -31 172 -87 172 -189z" />
    <glyph glyph-name="T" unicode="T" horiz-adv-x="465" 
d="M457 643c0 -31 -30 -68 -67 -68h-102v-576h-48c-39 0 -72 17 -72 74v502h-160v45c0 30 22 65 67 65h382v-42z" />
    <glyph glyph-name="U" unicode="U" horiz-adv-x="557" 
d="M502 258c0 -174 -78 -270 -231 -270c-133 0 -216 97 -216 271v426h46c39 0 73 -25 73 -99v-324c0 -113 39 -159 110 -159c70 0 99 44 99 152v430h46c44 0 73 -26 73 -95v-332z" />
    <glyph glyph-name="V" unicode="V" horiz-adv-x="507" 
d="M492 605c-1 -5 -32 -155 -60 -249c-44 -146 -93 -262 -144 -362h-28c-26 0 -48 14 -68 53c-96 191 -154 396 -187 638h70c41 0 65 -31 71 -72c17 -119 47 -263 110 -434c63 163 102 336 122 506h64c36 0 60 -33 50 -80z" />
    <glyph glyph-name="W" unicode="W" horiz-adv-x="802" 
d="M786 610c-1 -10 -3 -24 -5 -35c-39 -197 -89 -401 -175 -581h-35c-14 0 -38 3 -55 40c-40 87 -82 222 -113 390c-28 -154 -71 -307 -132 -430h-30c-25 0 -46 11 -60 41c-86 185 -144 424 -169 650h72c39 0 62 -39 67 -75c15 -116 42 -268 90 -413c48 153 84 340 104 462
h43c42 0 84 -25 95 -88c18 -109 44 -242 90 -374c45 134 82 322 100 487h62c32 0 58 -27 51 -74z" />
    <glyph glyph-name="X" unicode="X" horiz-adv-x="519" 
d="M517 34c-17 -25 -32 -40 -72 -40c-49 0 -81 32 -135 131l-71 130c-75 -116 -104 -183 -113 -255h-50c-30 0 -46 23 -46 49c0 61 33 143 106 245l47 66l-65 121c-52 96 -87 156 -99 204h69c28 0 59 -14 107 -105l73 -139c81 112 109 183 122 244h38c34 0 49 -28 49 -62
c0 -26 -11 -59 -35 -103c-26 -47 -66 -110 -118 -185l75 -134c38 -68 81 -132 118 -167z" />
    <glyph glyph-name="Y" unicode="Y" horiz-adv-x="476" 
d="M464 644c0 -51 -112 -278 -166 -354v-290h-51c-36 0 -72 28 -72 82v208c-66 102 -136 261 -170 394h53c42 0 71 -23 80 -49c26 -75 64 -164 105 -243c48 90 94 193 120 292h63c25 0 38 -23 38 -40z" />
    <glyph glyph-name="Z" unicode="Z" horiz-adv-x="489" 
d="M455 63c0 -36 -35 -63 -64 -63h-300c-24 0 -56 17 -56 57c0 58 27 113 86 202l141 211c26 39 53 78 59 107h-286v33c0 46 25 75 81 75h284c30 0 54 -30 54 -58c0 -63 -30 -121 -69 -179l-138 -203c-35 -51 -69 -100 -77 -136h285v-46z" />
    <glyph glyph-name="bracketleft" unicode="[" horiz-adv-x="270" 
d="M256 -170h-183v890h134c27 0 49 -17 49 -48v-28h-98v-737h49c26 0 49 -16 49 -48v-29z" />
    <glyph glyph-name="backslash" unicode="\" horiz-adv-x="349" 
d="M340 0h-38c-32 0 -74 19 -92 73l-203 612h46c26 0 66 -23 78 -59z" />
    <glyph glyph-name="bracketright" unicode="]" horiz-adv-x="270" 
d="M14 720h183v-890h-134c-27 0 -49 17 -49 48v28h98v737h-49c-26 0 -49 16 -49 48v29z" />
    <glyph glyph-name="asciicircum" unicode="^" horiz-adv-x="368" 
d="M339 402h-37c-27 0 -48 9 -57 41c-8 31 -42 113 -63 163c-24 -53 -69 -143 -90 -206h-20c-25 0 -38 15 -38 36c0 9 6 25 9 34c20 57 73 165 121 237h18c20 0 35 -21 45 -37c29 -47 88 -179 112 -268z" />
    <glyph glyph-name="underscore" unicode="_" horiz-adv-x="451" 
d="M451 -290h-450v92h450v-92z" />
    <glyph glyph-name="quoteleft" unicode="&#x2018;" horiz-adv-x="223" 
d="M30 570c0 107 66 176 161 180v-9c-28 -25 -51 -62 -51 -97c0 -20 12 -42 23 -52c9 -9 25 -27 25 -52c0 -46 -32 -75 -77 -75c-47 0 -81 38 -81 105z" />
    <glyph glyph-name="a" unicode="a" horiz-adv-x="439" 
d="M400 184c0 -122 -62 -196 -169 -196c-108 0 -195 50 -195 170c0 102 60 172 216 172h33v21c0 76 -28 96 -88 96c-77 0 -117 -29 -137 -61h-6v46c0 52 43 120 161 120c108 0 185 -60 185 -221v-147zM286 180v58h-34c-77 0 -100 -26 -100 -74c0 -47 25 -73 72 -73
c42 0 62 22 62 89z" />
    <glyph glyph-name="b" unicode="b" horiz-adv-x="517" 
d="M482 281c0 -165 -72 -293 -220 -293c-122 0 -208 99 -208 272v460h28c62 0 90 -29 90 -91v-154c17 41 60 77 115 77c92 0 195 -85 195 -271zM360 257c0 153 -41 185 -96 185c-51 0 -92 -58 -92 -162c0 -139 38 -184 101 -184c61 0 87 78 87 161z" />
    <glyph glyph-name="c" unicode="c" horiz-adv-x="420" 
d="M396 376h-7c-16 41 -56 65 -116 65c-62 0 -118 -66 -118 -161c0 -111 48 -181 120 -181c62 0 96 26 112 56h7v-55c0 -67 -53 -112 -135 -112c-122 0 -226 114 -226 271c0 169 89 293 240 293c74 0 123 -51 123 -117v-59z" />
    <glyph glyph-name="d" unicode="d" horiz-adv-x="511" 
d="M457 250c0 -169 -63 -262 -206 -262c-128 0 -217 116 -217 271c0 186 72 293 204 293c45 0 84 -30 102 -75v243h28c60 0 89 -30 89 -92v-378zM339 253c0 140 -43 191 -101 191c-51 0 -84 -60 -84 -159c0 -124 43 -189 102 -189c55 0 83 44 83 157z" />
    <glyph glyph-name="e" unicode="e" horiz-adv-x="463" 
d="M430 353c0 -102 -56 -133 -199 -135l-77 -1c8 -82 55 -124 120 -124c51 0 98 11 133 51h5v-42c0 -63 -40 -114 -161 -114c-114 0 -216 101 -216 271c0 183 86 293 216 293c94 0 179 -71 179 -199zM318 362c0 56 -29 88 -77 88c-72 0 -88 -87 -88 -142l49 1
c97 2 116 13 116 53z" />
    <glyph glyph-name="f" unicode="f" horiz-adv-x="308" 
d="M317 593h-6c-19 13 -34 19 -67 19c-42 0 -72 -21 -72 -90v-51h123v-38c0 -44 -39 -67 -78 -67h-45v-366h-29c-55 0 -90 30 -90 84v443c0 95 50 193 176 193c49 0 88 -31 88 -81v-46z" />
    <glyph glyph-name="g" unicode="g" horiz-adv-x="497" 
d="M447 48c0 -132 -84 -221 -208 -221c-102 0 -173 44 -173 112v52h5c30 -33 89 -54 156 -54c59 0 102 25 102 114c0 10 -3 38 -3 51v23c-13 -39 -54 -72 -104 -72c-108 0 -186 88 -186 229c0 137 80 270 231 270c105 0 177 -71 177 -219v-178c0 -33 3 -72 3 -107zM244 443
c-41 0 -86 -59 -86 -142c0 -96 31 -143 86 -143c51 0 82 51 82 146c0 117 -29 139 -82 139z" />
    <glyph glyph-name="h" unicode="h" horiz-adv-x="500" 
d="M447 0h-40c-47 0 -80 29 -80 79v237c0 100 -31 126 -80 126c-38 0 -75 -30 -75 -122v-320h-40c-51 0 -78 32 -78 79v641h27c61 0 92 -31 92 -84v-151c15 36 63 67 102 67c105 0 172 -70 172 -230v-322z" />
    <glyph glyph-name="i" unicode="i" horiz-adv-x="272" 
d="M117 731c39 0 71 -32 71 -71s-32 -70 -71 -70s-70 31 -70 70s31 71 70 71zM267 63c0 -47 -23 -69 -70 -69c-89 0 -138 51 -138 159v387h43c44 0 75 -30 75 -80v-295c0 -53 19 -70 70 -70h20v-32z" />
    <glyph glyph-name="j" unicode="j" horiz-adv-x="261" 
d="M206 661c0 -39 -31 -71 -70 -71s-71 32 -71 71s32 70 71 70s70 -31 70 -70zM194 6c0 -112 -63 -176 -150 -176c-43 0 -76 23 -76 55v37l51 6c34 4 57 22 57 85v527h39c47 0 79 -30 79 -81v-453z" />
    <glyph glyph-name="k" unicode="k" horiz-adv-x="468" 
d="M467 65c-12 -52 -30 -70 -74 -70c-28 0 -57 14 -76 40c-52 71 -100 150 -144 226v-261h-39c-53 0 -80 37 -80 82v638h45c47 0 74 -35 74 -76v-335c40 67 80 130 127 190c25 32 52 41 90 41h67v-5c-32 -36 -129 -174 -173 -247c31 -48 62 -107 102 -160
c36 -48 58 -62 81 -63z" />
    <glyph glyph-name="l" unicode="l" horiz-adv-x="282" 
d="M277 61c0 -47 -28 -70 -76 -70c-92 0 -143 51 -143 159v570h33c52 0 85 -29 85 -79v-479c0 -54 21 -70 74 -70h27v-31z" />
    <glyph glyph-name="m" unicode="m" horiz-adv-x="758" 
d="M704 0h-35c-59 0 -85 28 -85 84v236c0 93 -26 123 -76 123c-42 0 -70 -30 -70 -114v-329h-35c-50 0 -83 30 -83 84v236c0 94 -30 123 -78 123c-43 0 -70 -30 -70 -117v-326h-36c-48 0 -82 33 -82 84v230c0 150 62 238 198 238c59 0 106 -33 134 -80c22 43 73 80 128 80
c114 0 190 -66 190 -232v-320z" />
    <glyph glyph-name="n" unicode="n" horiz-adv-x="500" 
d="M447 0h-40c-47 0 -78 29 -78 79v234c0 102 -27 130 -85 130c-44 0 -72 -37 -72 -125v-318h-43c-47 0 -76 30 -76 79v243c0 136 63 230 205 230c108 0 189 -74 189 -229v-323z" />
    <glyph glyph-name="o" unicode="o" horiz-adv-x="495" 
d="M461 279c0 -167 -73 -291 -218 -291c-135 0 -209 125 -209 272c0 172 72 292 219 292c134 0 208 -120 208 -273zM341 258c0 131 -32 186 -98 186c-57 0 -89 -60 -89 -165c0 -119 29 -182 98 -182c58 0 89 57 89 161z" />
    <glyph glyph-name="p" unicode="p" horiz-adv-x="512" 
d="M476 285c0 -220 -87 -297 -190 -297c-50 0 -93 27 -113 72v-230h-29c-53 0 -90 35 -90 99v337c0 200 78 286 218 286c124 0 204 -108 204 -267zM356 257c0 139 -36 187 -101 187c-49 0 -83 -53 -83 -154c0 -142 39 -193 103 -193c51 0 81 53 81 160z" />
    <glyph glyph-name="q" unicode="q" horiz-adv-x="514" 
d="M256 552c135 0 204 -88 204 -270v-452h-40c-45 0 -78 29 -78 89v135c-20 -42 -66 -66 -108 -66c-121 0 -200 118 -200 269c0 173 79 295 222 295zM246 443c-53 0 -93 -50 -93 -162c0 -129 37 -184 97 -184c58 0 92 49 92 178c0 128 -30 168 -96 168z" />
    <glyph glyph-name="r" unicode="r" horiz-adv-x="317" 
d="M312 417h-5c-16 11 -42 18 -61 18c-49 0 -73 -32 -73 -115v-320h-31c-55 0 -89 32 -89 82v250c0 123 50 212 166 212c68 0 93 -32 93 -81v-46z" />
    <glyph glyph-name="s" unicode="s" horiz-adv-x="407" 
d="M374 169c0 -113 -67 -181 -186 -181c-85 0 -143 47 -143 110v50h5c27 -30 77 -53 133 -53c50 0 73 23 73 63c0 34 -17 49 -86 67c-92 24 -137 67 -137 145c0 98 66 182 190 182c97 0 139 -56 139 -115v-45h-5c-23 28 -68 53 -122 53c-62 0 -84 -27 -84 -64
c0 -31 12 -44 82 -63c91 -25 141 -70 141 -149z" />
    <glyph glyph-name="t" unicode="t" horiz-adv-x="328" 
d="M320 74c0 -52 -33 -85 -97 -85c-115 0 -170 64 -170 186v353c0 42 11 68 35 96c16 19 36 32 56 32h27v-116h149v-47c0 -30 -22 -60 -67 -60h-82v-244c0 -67 23 -92 68 -92c35 0 62 10 76 24h5v-47z" />
    <glyph glyph-name="u" unicode="u" horiz-adv-x="500" 
d="M447 230c0 -161 -64 -242 -199 -242c-110 0 -195 73 -195 234v319h32c58 0 88 -29 88 -83v-225c0 -105 32 -136 84 -136c43 0 71 29 71 126v317h32c58 0 87 -29 87 -82v-228z" />
    <glyph glyph-name="v" unicode="v" horiz-adv-x="423" 
d="M417 485c0 -28 -24 -123 -40 -177c-36 -121 -74 -221 -124 -315h-34c-19 0 -38 6 -55 36c-74 132 -133 328 -155 511h63c40 0 62 -34 66 -63c15 -97 40 -210 80 -311c38 97 76 239 93 374h56c34 0 50 -24 50 -55z" />
    <glyph glyph-name="w" unicode="w" horiz-adv-x="672" 
d="M662 486c0 -127 -88 -381 -144 -490h-38c-32 0 -47 13 -62 49c-32 78 -57 175 -78 269c-17 -97 -58 -229 -98 -318h-35c-31 0 -46 9 -63 43c-61 121 -113 340 -132 501h67c42 0 64 -34 68 -63c11 -87 35 -223 64 -310c32 95 60 235 77 347h47c36 0 66 -24 72 -60
c15 -84 41 -199 70 -287c32 89 63 249 71 373h56c42 0 58 -27 58 -54z" />
    <glyph glyph-name="x" unicode="x" horiz-adv-x="450" 
d="M439 59c0 -41 -22 -67 -70 -67c-50 0 -75 27 -135 135l-27 49c-23 -35 -41 -65 -54 -95c-14 -32 -19 -55 -22 -82h-50c-28 0 -49 23 -49 51c0 52 29 107 84 186l34 49l-68 123c-33 60 -46 100 -53 132h65c28 0 55 -22 91 -89l47 -87c33 49 52 81 64 111
c10 24 16 43 19 65h44c34 0 48 -29 47 -62c-1 -28 -18 -63 -47 -110c-20 -32 -46 -74 -70 -109l63 -116c35 -64 57 -84 87 -84z" />
    <glyph glyph-name="y" unicode="y" horiz-adv-x="431" 
d="M319 112c-82 -214 -125 -285 -202 -285c-50 0 -81 19 -81 64v35l46 3c33 2 54 16 84 105c-68 117 -141 369 -154 506h64c33 0 63 -25 68 -59c13 -94 44 -225 81 -313c35 96 76 253 85 372h56c28 0 50 -22 50 -49c0 -67 -35 -216 -97 -379z" />
    <glyph glyph-name="z" unicode="z" horiz-adv-x="413" 
d="M381 57c0 -31 -27 -57 -57 -57h-215c-51 0 -74 29 -74 64c0 40 30 96 69 152l112 162c15 22 28 45 29 58h-210v39c0 37 26 65 74 65h200c48 0 69 -33 69 -65c0 -42 -12 -84 -47 -134l-122 -174c-24 -34 -35 -54 -37 -62h209v-48z" />
    <glyph glyph-name="braceleft" unicode="{" horiz-adv-x="331" 
d="M322 636h-52c-39 0 -61 -15 -61 -67c0 -17 1 -62 2 -80c2 -32 4 -76 3 -108c-3 -63 -33 -95 -76 -107l1 -2c45 -15 75 -57 75 -127c0 -28 -1 -56 -3 -79s-2 -62 -2 -82c0 -48 20 -69 47 -69h16c22 0 48 -24 48 -45v-40h-90c-80 0 -130 52 -130 142c0 45 1 56 3 101
c1 20 4 72 4 89c0 37 -16 59 -40 65c-32 8 -46 22 -46 46v34l43 8c33 6 41 45 41 80c0 27 -1 65 -3 93c-3 29 -2 67 -2 95c0 82 51 137 130 137h39c28 0 53 -19 53 -48v-36z" />
    <glyph glyph-name="bar" unicode="|" horiz-adv-x="257" 
d="M156 -170h-21c-19 0 -41 17 -41 45v845h20c20 0 42 -14 42 -40v-850z" />
    <glyph glyph-name="braceright" unicode="}" horiz-adv-x="331" 
d="M9 -87h52c39 0 61 15 61 67c0 17 -1 62 -2 80c-2 32 -4 76 -3 108c3 63 33 95 76 107l-1 2c-45 15 -75 57 -75 127c0 28 1 56 3 79s2 62 2 82c0 48 -20 69 -47 69h-16c-22 0 -48 24 -48 45v40h90c80 0 130 -52 130 -142c0 -45 -1 -56 -3 -101c-1 -20 -4 -72 -4 -89
c0 -37 16 -59 40 -65c32 -8 46 -22 46 -46v-34l-43 -8c-33 -6 -41 -45 -41 -80c0 -27 1 -65 3 -93c3 -29 2 -67 2 -95c0 -82 -51 -137 -130 -137h-39c-28 0 -53 19 -53 48v36z" />
    <glyph glyph-name="asciitilde" unicode="~" horiz-adv-x="433" 
d="M380 329c0 -53 -35 -96 -98 -96c-33 0 -55 15 -76 28c-20 12 -42 18 -53 18c-17 0 -32 -15 -33 -45h-29c-14 0 -39 12 -39 43c0 64 44 100 97 100c31 0 52 -13 74 -26c17 -11 43 -22 57 -22c22 0 34 15 35 53h31c13 0 34 -18 34 -53z" />
    <glyph glyph-name="exclamdown" unicode="&#xa1;" horiz-adv-x="261" 
d="M121 388c-42 0 -76 34 -76 76s34 76 76 76s75 -34 75 -76s-33 -76 -75 -76zM67 -95l12 407h38c37 0 60 -27 61 -70l13 -413h-56c-42 0 -69 28 -68 76z" />
    <glyph glyph-name="cent" unicode="&#xa2;" 
d="M404 382h-5c-16 36 -53 59 -105 59c-71 0 -120 -59 -120 -164c0 -114 47 -178 117 -178c54 0 86 22 108 49h3v-44c0 -58 -46 -92 -98 -102v-133h-26c-31 0 -54 13 -54 46v88c-120 24 -168 149 -168 258c0 144 59 248 168 274v138h30c34 0 50 -17 50 -54v-79
c58 -7 100 -49 100 -107v-51z" />
    <glyph glyph-name="sterling" unicode="&#xa3;" 
d="M378 0h-319v29c0 25 17 70 32 92c23 33 40 75 40 118c0 19 0 39 -3 57h-97v33c0 34 22 58 63 58h15c-4 28 -9 60 -9 88c0 123 82 219 206 219c63 0 123 -43 123 -103v-60h-5c-25 34 -60 53 -113 53c-46 0 -91 -33 -91 -110c0 -28 5 -58 10 -87h148v-36
c0 -35 -29 -55 -65 -55h-75c1 -18 3 -43 3 -51c0 -50 -19 -98 -44 -137h256v-46c0 -37 -25 -62 -75 -62z" />
    <glyph glyph-name="fraction" unicode="&#x2044;" horiz-adv-x="359" 
d="M339 670c0 -12 -3 -25 -8 -38l-238 -632h-29c-22 0 -42 18 -42 52c0 14 3 31 10 49l235 619h30c26 0 42 -22 42 -50z" />
    <glyph glyph-name="yen" unicode="&#xa5;" 
d="M463 647c0 -11 -5 -26 -13 -45c-32 -74 -112 -202 -142 -243h133v-34c0 -21 -19 -46 -52 -46h-89v-76h141v-35c0 -24 -23 -46 -52 -46h-89v-122h-48c-31 0 -57 18 -57 58v64h-140v33c0 27 14 48 51 48h89v76h-140v33c0 27 14 47 51 47h78c-40 54 -134 249 -159 326h52
c37 0 67 -18 76 -42c26 -65 67 -154 100 -208c34 55 94 164 120 250h49c25 0 41 -18 41 -38z" />
    <glyph glyph-name="florin" unicode="&#x192;" 
d="M462 587c-15 13 -37 19 -62 19c-38 0 -59 -21 -64 -51l-21 -132h116v-36c0 -25 -21 -48 -64 -48h-64l-42 -289c-15 -100 -66 -152 -148 -152c-54 0 -91 28 -91 63v40h8c15 -9 35 -13 58 -13c46 0 67 24 75 79l39 272h-112v35c0 28 30 49 68 49h56l23 153
c10 66 75 120 147 120c49 0 87 -27 87 -69v-40h-9z" />
    <glyph glyph-name="section" unicode="&#xa7;" 
d="M434 271c0 -53 -30 -112 -64 -140c24 -21 46 -58 46 -101c0 -103 -64 -175 -186 -175c-91 0 -141 49 -141 112v51h5c34 -43 73 -69 134 -69c45 0 75 16 75 69c0 43 -20 65 -120 111c-77 35 -114 82 -114 158c0 53 26 97 75 131c-34 25 -55 65 -55 114
c0 81 57 163 186 163c75 0 126 -46 126 -99v-44h-5c-26 34 -63 50 -114 50c-49 0 -83 -23 -83 -60c0 -41 11 -56 91 -95c74 -37 144 -82 144 -176zM332 252c0 39 -12 67 -52 87c-32 16 -55 28 -81 43c-15 -16 -28 -42 -28 -76c0 -45 18 -71 61 -92c31 -16 54 -27 79 -41
c13 18 21 35 21 79z" />
    <glyph glyph-name="currency" unicode="&#xa4;" 
d="M458 150h5v-43c0 -71 -51 -119 -149 -119c-123 0 -200 91 -216 246h-75v32c0 29 15 45 37 45h36s-2 19 -2 31c0 11 2 28 2 28h-73v33c0 29 19 45 37 45h38c23 152 108 249 227 249c85 0 138 -44 138 -116v-48h-5c-24 27 -56 51 -107 51c-70 0 -116 -42 -127 -136h174v-32
c0 -30 -18 -46 -44 -46h-134s-2 -17 -2 -28c0 -12 2 -31 2 -31h178v-31c0 -26 -16 -46 -44 -46h-132c8 -93 52 -133 128 -133c50 0 84 20 108 49z" />
    <glyph glyph-name="quotesingle" unicode="'" horiz-adv-x="240" 
d="M177 607l-15 -182h-28c-37 0 -54 29 -58 67l-18 194h53c41 0 70 -27 66 -79z" />
    <glyph glyph-name="quotedblleft" unicode="&#x201c;" horiz-adv-x="433" 
d="M238 570c0 107 65 176 161 180v-9c-29 -25 -51 -62 -51 -97c0 -20 12 -42 23 -52c9 -9 25 -27 25 -52c0 -46 -33 -75 -77 -75c-48 0 -81 38 -81 105zM38 570c0 107 66 176 161 180v-9c-28 -25 -51 -62 -51 -97c0 -20 12 -42 23 -52c9 -9 25 -27 25 -52
c0 -46 -32 -75 -77 -75c-47 0 -81 38 -81 105z" />
    <glyph glyph-name="guillemotleft" unicode="&#xab;" horiz-adv-x="444" 
d="M414 72h-35c-46 0 -69 15 -87 51l-73 148l73 149c15 31 36 49 87 49h35l-91 -198zM236 72h-36c-46 0 -68 17 -87 51l-80 148l80 149c16 29 35 49 87 49h36l-100 -198z" />
    <glyph glyph-name="guilsinglleft" unicode="&#x2039;" horiz-adv-x="266" 
d="M232 72h-36c-46 0 -71 17 -90 51l-80 148l80 149c16 29 39 49 90 49h36l-98 -198z" />
    <glyph glyph-name="guilsinglright" unicode="&#x203a;" horiz-adv-x="266" 
d="M24 71l98 199l-98 198h36c51 0 74 -19 90 -49l80 -149l-80 -148c-19 -34 -45 -51 -90 -51h-36z" />
    <glyph glyph-name="fi" unicode="&#xfb01;" horiz-adv-x="574" 
d="M419 731c39 0 71 -32 71 -71s-32 -70 -71 -70s-70 31 -70 70s31 71 70 71zM317 593h-6c-19 13 -34 19 -67 19c-42 0 -72 -21 -72 -90v-51h123v-38c0 -44 -39 -67 -78 -67h-45v-366h-29c-55 0 -90 30 -90 84v443c0 95 50 193 176 193c49 0 88 -31 88 -81v-46zM569 63
c0 -47 -23 -69 -70 -69c-89 0 -138 51 -138 159v387h43c44 0 75 -30 75 -80v-295c0 -53 19 -70 70 -70h20v-32z" />
    <glyph glyph-name="fl" unicode="&#xfb02;" horiz-adv-x="585" 
d="M317 593h-6c-19 13 -34 19 -67 19c-42 0 -72 -21 -72 -90v-51h123v-38c0 -44 -39 -67 -78 -67h-45v-366h-29c-55 0 -90 30 -90 84v443c0 95 50 193 176 193c49 0 88 -31 88 -81v-46zM580 61c0 -47 -28 -70 -76 -70c-92 0 -143 51 -143 159v570h33c52 0 85 -29 85 -79
v-479c0 -54 21 -70 74 -70h27v-31z" />
    <glyph glyph-name="endash" unicode="&#x2013;" 
d="M425 354v-49c0 -25 -22 -48 -50 -48h-311v44c0 31 20 53 57 53h304z" />
    <glyph glyph-name="dagger" unicode="&#x2020;" horiz-adv-x="455" 
d="M426 504c0 -32 -24 -63 -72 -63h-75v-611h-37c-32 0 -68 26 -68 77v534h-147v41c0 31 25 59 65 59h82v210h41c31 0 64 -25 64 -66v-144h147v-37z" />
    <glyph glyph-name="daggerdbl" unicode="&#x2021;" horiz-adv-x="455" 
d="M426 216v-37c0 -32 -24 -63 -72 -63h-75v-286h-37c-32 0 -68 26 -68 77v209h-147v41c0 31 25 59 65 59h82v225h-147v41c0 31 25 59 65 59h82v210h41c31 0 64 -25 64 -66v-144h147v-37c0 -32 -24 -63 -72 -63h-75v-225h147z" />
    <glyph glyph-name="periodcentered" unicode="&#xb7;" horiz-adv-x="250" 
d="M198 296c0 -42 -32 -75 -73 -75s-73 33 -73 75s32 76 73 76s73 -34 73 -76z" />
    <glyph glyph-name="paragraph" unicode="&#xb6;" horiz-adv-x="469" 
d="M412 -6h-27c-32 0 -53 15 -53 61v531c0 29 -12 34 -40 34h-25v-626h-26c-27 0 -54 16 -54 61v229h-19c-67 0 -140 68 -140 199c0 140 65 213 222 213c131 0 162 -38 162 -102v-600z" />
    <glyph glyph-name="bullet" unicode="&#x2022;" horiz-adv-x="348" 
d="M293 363c0 -67 -52 -119 -119 -119s-119 52 -119 119s53 119 119 119s119 -52 119 -119z" />
    <glyph glyph-name="quotesinglbase" unicode="&#x201a;" horiz-adv-x="223" 
d="M191 41c0 -107 -66 -176 -161 -180v9c28 25 51 62 51 97c0 20 -12 42 -23 52c-9 9 -25 27 -25 52c0 46 32 75 77 75c47 0 81 -38 81 -105z" />
    <glyph glyph-name="quotedblbase" unicode="&#x201e;" horiz-adv-x="433" 
d="M397 41c0 -107 -66 -176 -161 -180v9c28 25 51 62 51 97c0 20 -12 42 -23 52c-9 9 -25 27 -25 52c0 46 32 75 77 75c47 0 81 -38 81 -105zM199 41c0 -107 -66 -176 -161 -180v9c28 25 51 62 51 97c0 20 -12 42 -23 52c-9 9 -25 27 -25 52c0 46 32 75 77 75
c47 0 81 -38 81 -105z" />
    <glyph glyph-name="quotedblright" unicode="&#x201d;" horiz-adv-x="433" 
d="M395 614c0 -107 -66 -176 -161 -180v9c28 25 51 62 51 97c0 20 -13 42 -23 52c-10 9 -25 27 -25 52c0 46 32 75 77 75c47 0 81 -38 81 -105zM195 614c0 -107 -66 -176 -161 -180v9c28 25 51 62 51 97c0 20 -12 42 -23 52c-9 9 -25 27 -25 52c0 46 32 75 77 75
c47 0 81 -38 81 -105z" />
    <glyph glyph-name="guillemotright" unicode="&#xbb;" horiz-adv-x="444" 
d="M212 72l100 199l-100 198h36c52 0 71 -20 87 -49l80 -149l-80 -148c-19 -35 -41 -51 -87 -51h-36zM34 72l91 199l-91 198h35c51 0 72 -18 87 -49l73 -149l-73 -148c-18 -36 -41 -51 -87 -51h-35z" />
    <glyph glyph-name="ellipsis" unicode="&#x2026;" horiz-adv-x="749" 
d="M618 152c42 0 76 -34 76 -76s-34 -76 -76 -76c-41 0 -75 34 -75 76s34 76 75 76zM371 152c42 0 76 -34 76 -76s-34 -76 -76 -76c-41 0 -75 34 -75 76s34 76 75 76zM129 152c42 0 76 -34 76 -76s-34 -76 -76 -76c-41 0 -75 34 -75 76s34 76 75 76z" />
    <glyph glyph-name="perthousand" unicode="&#x2030;" horiz-adv-x="1229" 
d="M343 477c0 -142 -54 -229 -156 -229c-91 0 -151 87 -151 220c0 143 57 229 157 229c93 0 150 -87 150 -220zM575 636c0 -12 -5 -33 -10 -47l-221 -589h-30c-24 0 -41 19 -41 49c0 14 4 30 11 49l221 587h30c21 0 40 -17 40 -49zM1182 216c0 -142 -54 -229 -156 -229
c-91 0 -151 87 -151 220c0 143 56 229 156 229c93 0 151 -87 151 -220zM824 216c0 -142 -54 -229 -156 -229c-91 0 -151 87 -151 220c0 143 56 229 156 229c93 0 151 -87 151 -220zM245 466c0 100 -21 134 -59 134c-30 0 -52 -35 -52 -122c0 -94 24 -134 59 -134
c32 0 52 34 52 122zM1084 205c0 100 -21 134 -59 134c-30 0 -52 -36 -52 -122c0 -94 24 -134 59 -134c32 0 52 34 52 122zM726 205c0 100 -21 134 -59 134c-30 0 -52 -36 -52 -122c0 -94 24 -134 59 -134c32 0 52 34 52 122z" />
    <glyph glyph-name="questiondown" unicode="&#xbf;" horiz-adv-x="404" 
d="M230 540c42 0 76 -34 76 -76s-34 -76 -76 -76s-75 34 -75 76s33 76 75 76zM42 -14c0 61 23 110 60 154l65 77c17 21 22 38 22 66v48h43c29 0 53 -24 53 -54c0 -35 0 -68 -39 -117l-63 -80c-20 -25 -23 -50 -23 -82c0 -51 29 -77 79 -77c64 0 98 25 119 64h5v-46
c0 -55 -50 -119 -149 -119c-110 0 -172 73 -172 166z" />
    <glyph glyph-name="grave" unicode="`" horiz-adv-x="529" 
d="M66 705c0 36 22 51 52 51c36 0 64 -27 91 -58c25 -28 47 -63 61 -87v-5h-41c-35 0 -75 12 -104 26c-37 18 -59 42 -59 73z" />
    <glyph glyph-name="acute" unicode="&#xb4;" horiz-adv-x="342" 
d="M266 705c0 -31 -22 -55 -59 -73c-29 -14 -69 -26 -104 -26h-41v5c14 24 36 59 61 87c27 31 55 58 91 58c30 0 52 -15 52 -51z" />
    <glyph glyph-name="circumflex" unicode="&#x2c6;" horiz-adv-x="470" 
d="M374 587l-132 60l-130 -61v35c0 45 13 61 50 83l81 49l79 -48c39 -23 52 -40 52 -87v-31z" />
    <glyph glyph-name="tilde" unicode="&#x2dc;" horiz-adv-x="370" 
d="M330 695c0 -52 -32 -89 -86 -89c-29 0 -51 15 -70 29c-18 13 -37 27 -50 27c-15 0 -31 -9 -31 -38v-18h-20c-22 0 -43 19 -43 51c0 67 49 90 85 90c26 0 52 -13 70 -27c17 -12 36 -28 53 -28c19 0 30 11 30 35v22h25c20 0 37 -20 37 -54z" />
    <glyph glyph-name="macron" unicode="&#xaf;" horiz-adv-x="331" 
d="M261 660c0 -28 -21 -48 -50 -48h-151v35c0 29 18 56 56 56h145v-43z" />
    <glyph glyph-name="breve" unicode="&#x2d8;" horiz-adv-x="508" 
d="M240 584c-84 0 -153 63 -153 153v18c35 -38 85 -70 154 -70c66 0 122 35 152 70v-23c0 -85 -70 -148 -153 -148z" />
    <glyph glyph-name="dotaccent" unicode="&#x2d9;" horiz-adv-x="409" 
d="M140 670c0 36 28 64 64 64s65 -28 65 -64s-29 -65 -65 -65s-64 29 -64 65z" />
    <glyph glyph-name="dieresis" unicode="&#xa8;" horiz-adv-x="401" 
d="M288 730c34 0 63 -27 63 -61s-29 -63 -63 -63s-61 29 -61 63s27 61 61 61zM111 730c34 0 61 -27 61 -61s-27 -63 -61 -63s-62 29 -62 63s28 61 62 61z" />
    <glyph glyph-name="ring" unicode="&#x2da;" horiz-adv-x="316" 
d="M273 712c0 -68 -43 -115 -114 -115c-70 0 -116 45 -116 114c0 74 46 116 116 116c72 0 114 -43 114 -115zM200 712c0 34 -15 54 -41 54s-41 -19 -41 -55c0 -31 15 -53 40 -53c27 0 42 19 42 54z" />
    <glyph glyph-name="cedilla" unicode="&#xb8;" horiz-adv-x="441" 
d="M204 -213c-56 0 -82 22 -82 60v24h6c19 -16 46 -21 72 -21c27 0 37 8 37 27c0 16 -11 30 -39 30c-15 0 -28 -1 -45 -5c11 49 13 53 20 98h57c0 -16 -1 -25 -3 -40c46 -2 85 -25 85 -79c0 -67 -48 -94 -108 -94z" />
    <glyph glyph-name="hungarumlaut" unicode="&#x2dd;" horiz-adv-x="372" 
d="M182 615c9 29 32 70 50 98c22 34 53 64 83 64s41 -11 41 -36s-25 -53 -48 -71c-27 -21 -88 -49 -113 -53zM17 615c9 29 33 70 51 98c22 34 52 64 82 64c31 0 42 -11 42 -36s-25 -53 -48 -71c-27 -21 -88 -49 -113 -53z" />
    <glyph glyph-name="ogonek" unicode="&#x2db;" horiz-adv-x="480" 
d="M253 -215c-65 0 -106 34 -106 91c0 55 45 101 90 124h53l-29 -28c-34 -33 -44 -46 -44 -84c0 -26 20 -42 52 -42c18 0 38 2 74 25v-30c0 -40 -39 -56 -90 -56z" />
    <glyph glyph-name="caron" unicode="&#x2c7;" horiz-adv-x="493" 
d="M110 745l132 -60l130 61v-35c0 -45 -13 -61 -50 -83l-81 -49l-79 48c-39 23 -52 40 -52 87v31z" />
    <glyph glyph-name="emdash" unicode="&#x2014;" horiz-adv-x="743" 
d="M699 354v-49c0 -25 -22 -48 -50 -48h-606v44c0 31 20 53 57 53h599z" />
    <glyph glyph-name="AE" unicode="&#xc6;" horiz-adv-x="734" 
d="M708 65c0 -46 -26 -72 -114 -72h-52c-126 0 -179 51 -196 185h-186c-12 -41 -32 -120 -42 -178h-55c-32 0 -47 21 -47 47c0 31 9 79 28 143c49 170 149 418 209 495h460v-43c0 -40 -24 -67 -77 -67h-221c7 -46 16 -125 21 -176h212v-53c0 -38 -26 -53 -68 -53h-136l8 -85
c7 -71 28 -106 100 -106h49c29 0 84 7 107 17v-54zM335 274c-2 73 -22 236 -32 298c-36 -71 -94 -236 -110 -298h142z" />
    <glyph glyph-name="ordfeminine" unicode="&#xaa;" horiz-adv-x="330" 
d="M284 467c0 -106 -37 -147 -126 -147c-69 0 -124 38 -124 113c0 77 48 117 146 117h17v15c0 45 -17 57 -55 57c-50 0 -74 -16 -92 -42h-5v36c0 38 34 80 112 80c79 0 127 -48 127 -147v-82zM198 450v35h-20c-43 0 -59 -16 -59 -47s13 -48 44 -48c22 0 35 12 35 60z" />
    <glyph glyph-name="Lslash" unicode="&#x141;" horiz-adv-x="427" 
d="M250 323l-67 -32v-67c0 -90 29 -120 96 -120h34c48 0 91 10 112 20v-40c0 -74 -45 -90 -114 -90h-54c-124 0 -194 74 -194 217v25l-65 -30v49c0 34 10 61 54 81l11 4v345h44c47 0 76 -23 76 -85v-204l124 57v-49c0 -39 -13 -61 -57 -81z" />
    <glyph glyph-name="Oslash" unicode="&#xd8;" horiz-adv-x="590" 
d="M543 658c0 -13 -8 -33 -20 -51l-13 -20c37 -55 62 -133 62 -236c0 -208 -97 -363 -272 -363c-52 0 -101 17 -142 51l-33 -51h-27c-22 0 -33 18 -33 36c0 21 11 42 25 65l10 16c-36 57 -58 134 -58 227c0 209 86 364 272 364c46 0 94 -15 137 -47l30 47h30
c26 0 32 -23 32 -38zM175 221l215 333c-24 22 -55 32 -90 32c-96 0 -139 -101 -139 -235c0 -52 5 -95 14 -130zM436 472l-217 -337c25 -25 57 -37 96 -37c85 0 137 89 137 235c0 57 -6 103 -16 139z" />
    <glyph glyph-name="OE" unicode="&#x152;" horiz-adv-x="822" 
d="M686 -7h-56c-92 0 -143 36 -168 107c-28 -62 -85 -112 -173 -112c-139 0 -247 133 -247 349c0 212 83 359 258 359c55 0 130 -33 158 -89c6 43 43 78 87 78h254v-43c0 -42 -21 -68 -70 -68h-173c-10 -45 -18 -117 -18 -173h196v-46c0 -39 -22 -56 -65 -56h-131v-43
c0 -110 22 -154 111 -154h27c47 0 87 6 123 15v-37c0 -56 -27 -87 -113 -87zM162 356c0 -180 57 -258 142 -258c80 0 116 82 116 250c0 177 -37 238 -127 238c-78 0 -131 -69 -131 -230z" />
    <glyph glyph-name="ordmasculine" unicode="&#xba;" horiz-adv-x="330" 
d="M304 513c0 -112 -48 -196 -142 -196c-87 0 -135 87 -135 184c0 117 49 195 142 195c87 0 135 -79 135 -183zM224 499c0 90 -21 121 -62 121c-34 0 -54 -36 -54 -107c0 -80 18 -120 61 -120c36 0 55 36 55 106z" />
    <glyph glyph-name="ae" unicode="&#xe6;" horiz-adv-x="708" 
d="M672 359c0 -107 -58 -135 -198 -135c-17 0 -55 2 -75 3c1 -82 46 -135 122 -135c59 0 102 19 130 51h4v-55c0 -59 -65 -100 -161 -100c-62 0 -122 32 -149 84c-20 -47 -76 -84 -139 -84c-89 0 -170 46 -170 161c0 104 78 177 199 177h51v28c0 67 -26 92 -86 92
c-77 0 -120 -24 -142 -64h-4v50c0 56 48 119 158 119c63 0 120 -28 144 -83c26 53 78 83 138 83c90 0 178 -68 178 -192zM561 362c0 56 -25 89 -77 89c-60 0 -86 -55 -86 -131l45 -1c99 -2 118 3 118 43zM289 184v51h-41c-64 0 -96 -25 -96 -75c0 -48 21 -71 70 -71
c40 0 67 26 67 95z" />
    <glyph glyph-name="dotlessi" unicode="&#x131;" horiz-adv-x="272" 
d="M271 55c0 -44 -27 -64 -70 -64c-83 0 -136 48 -136 158v391h37c55 0 80 -25 80 -80v-292c0 -59 21 -79 73 -79h16v-34z" />
    <glyph glyph-name="lslash" unicode="&#x142;" horiz-adv-x="282" 
d="M230 323l-54 -25v-136c0 -54 21 -70 74 -70h27v-31c0 -47 -28 -70 -76 -70c-92 0 -143 51 -143 159v92l-80 -36v49c0 34 10 61 54 81l26 11v373h33c52 0 85 -29 85 -79v-239l111 51v-49c0 -39 -13 -61 -57 -81z" />
    <glyph glyph-name="oslash" unicode="&#xf8;" horiz-adv-x="495" 
d="M459 521c0 -10 -7 -25 -18 -40l-21 -29c27 -47 41 -107 41 -173c0 -167 -73 -291 -218 -291c-49 0 -90 17 -122 45l-32 -45h-23c-20 0 -29 15 -29 29c0 17 8 34 21 52l16 22c-26 47 -40 106 -40 169c0 172 72 292 219 292c48 0 89 -16 121 -43l31 43h26
c23 0 28 -19 28 -31zM158 209l149 206c-16 20 -37 29 -64 29c-57 0 -89 -60 -89 -165c0 -26 1 -49 4 -70zM336 334l-148 -208c15 -19 36 -29 64 -29c58 0 89 57 89 161c0 29 -2 54 -5 76z" />
    <glyph glyph-name="oe" unicode="&#x153;" horiz-adv-x="773" 
d="M732 352c0 -104 -52 -133 -195 -133h-80c6 -79 55 -124 121 -124c60 0 101 14 135 49h5v-35c0 -71 -50 -121 -164 -121c-68 0 -136 39 -161 95c-25 -58 -79 -95 -149 -95c-126 0 -209 112 -209 269c0 192 80 295 220 295c66 0 117 -31 151 -91c29 52 81 91 145 91
c104 0 181 -79 181 -200zM620 357c0 63 -28 95 -77 95c-77 0 -90 -96 -91 -145h61c39 0 107 -2 107 50zM341 258c0 142 -35 187 -98 187c-53 0 -90 -64 -90 -168c0 -124 34 -179 100 -179c58 0 88 54 88 160z" />
    <glyph glyph-name="germandbls" unicode="&#xdf;" horiz-adv-x="505" 
d="M475 163c0 -105 -54 -169 -151 -169c-71 0 -109 33 -109 76v50h5c19 -16 48 -27 78 -27c37 0 59 23 59 66c0 42 -12 56 -42 81l-47 39c-22 18 -32 44 -32 82c0 48 25 74 52 101l30 29c10 10 18 36 18 50c0 39 -22 62 -72 62c-59 0 -92 -38 -92 -131v-472h-38
c-50 0 -79 29 -79 75v406c0 145 97 226 214 226c102 0 184 -60 184 -159c0 -52 -22 -83 -53 -108l-37 -30c-18 -14 -24 -30 -24 -44c0 -22 11 -33 35 -51l44 -34c37 -28 57 -66 57 -118z" />
    <glyph glyph-name="Eth" unicode="&#xd0;" horiz-adv-x="569" 
d="M176 390h130v-46c0 -30 -18 -47 -52 -47h-78v-133c0 -42 15 -60 57 -60h22c88 0 156 80 156 231c0 169 -62 244 -163 244h-31c-13 0 -29 -3 -41 -7v-182zM-4 297v44c0 27 17 49 47 49h13v270c29 13 99 29 141 29h63c142 0 273 -105 273 -337c0 -220 -109 -358 -267 -358
h-52c-96 0 -158 46 -158 147v156h-60z" />
    <glyph glyph-name="eth" unicode="&#xf0;" horiz-adv-x="495" 
d="M457 279c0 -180 -87 -291 -216 -291c-115 0 -206 108 -206 272c0 174 80 285 206 285c33 0 56 -15 79 -41c-10 52 -40 101 -73 117l-76 -70c-14 13 -29 25 -29 50c0 28 9 38 34 60c-45 12 -60 28 -60 60v50c54 0 99 -5 150 -28l70 65c11 -12 29 -28 29 -49
c0 -30 -16 -48 -33 -62c93 -85 125 -222 125 -371v-47zM340 264c0 92 -19 183 -99 183c-67 0 -89 -83 -89 -162c0 -92 19 -187 99 -187c68 0 89 87 89 166z" />
    <glyph glyph-name="Scaron" unicode="&#x160;" horiz-adv-x="481" 
d="M447 203c0 -129 -81 -215 -220 -215c-116 0 -179 54 -179 141v47h5c33 -46 93 -78 161 -78c78 0 112 33 112 95c0 57 -29 78 -130 109c-96 30 -164 89 -164 180c0 112 77 215 224 215c124 0 172 -59 172 -128v-58h-5c-34 50 -84 76 -150 76c-76 0 -120 -35 -120 -93
c0 -49 32 -74 122 -102c100 -31 172 -87 172 -189zM123 903l132 -60l130 61v-35c0 -45 -13 -61 -50 -83l-81 -49l-79 48c-39 23 -52 40 -52 87v31z" />
    <glyph glyph-name="scaron" unicode="&#x161;" horiz-adv-x="407" 
d="M374 169c0 -113 -67 -181 -186 -181c-85 0 -143 47 -143 110v50h5c27 -30 77 -53 133 -53c50 0 73 23 73 63c0 34 -17 49 -86 67c-92 24 -137 67 -137 145c0 98 66 182 190 182c97 0 139 -56 139 -115v-45h-5c-23 28 -68 53 -122 53c-62 0 -84 -27 -84 -64
c0 -31 12 -44 82 -63c91 -25 141 -70 141 -149zM90 765l132 -60l130 61v-35c0 -45 -13 -61 -50 -83l-81 -49l-79 48c-39 23 -52 40 -52 87v31z" />
    <glyph glyph-name="Yacute" unicode="&#xdd;" horiz-adv-x="476" 
d="M464 644c0 -51 -112 -278 -166 -354v-290h-51c-36 0 -72 28 -72 82v208c-66 102 -136 261 -170 394h53c42 0 71 -23 80 -49c26 -75 64 -164 105 -243c48 90 94 193 120 292h63c25 0 38 -23 38 -40zM387 824c0 -31 -22 -55 -59 -73c-29 -14 -69 -26 -104 -26h-41v5
c14 24 36 59 61 87c27 31 55 58 91 58c30 0 52 -15 52 -51z" />
    <glyph glyph-name="yacute" unicode="&#xfd;" horiz-adv-x="431" 
d="M319 112c-82 -214 -125 -285 -202 -285c-50 0 -81 19 -81 64v35l46 3c33 2 54 16 84 105c-68 117 -141 369 -154 506h64c33 0 63 -25 68 -59c13 -94 44 -225 81 -313c35 96 76 253 85 372h56c28 0 50 -22 50 -49c0 -67 -35 -216 -97 -379zM376 705c0 -31 -22 -55 -59 -73
c-29 -14 -69 -26 -104 -26h-41v5c14 24 36 59 61 87c27 31 55 58 91 58c30 0 52 -15 52 -51z" />
    <glyph glyph-name="Thorn" unicode="&#xde;" horiz-adv-x="474" 
d="M180 461v-212c20 -7 51 -8 76 -8c53 0 93 36 93 110c0 90 -43 117 -99 117h-20c-14 0 -37 -4 -50 -7zM58 685h52c37 0 70 -27 70 -71v-41c12 2 24 3 33 3h56c112 0 200 -78 200 -210c0 -143 -86 -231 -202 -231c-33 0 -63 3 -87 15v-150l-3 1v-1h-45c-44 0 -74 25 -74 83
v602z" />
    <glyph glyph-name="thorn" unicode="&#xfe;" horiz-adv-x="512" 
d="M356 257c0 139 -36 187 -101 187c-49 0 -83 -53 -83 -154c0 -142 39 -193 103 -193c51 0 81 53 81 160zM54 720h33c52 0 85 -29 85 -79v-119c26 18 62 30 100 30c124 0 204 -108 204 -267c0 -220 -87 -297 -190 -297c-50 0 -90 20 -113 62v-220h-29c-53 0 -90 35 -90 99
v791z" />
    <glyph glyph-name="Zcaron" unicode="&#x17d;" horiz-adv-x="489" 
d="M455 63c0 -36 -35 -63 -64 -63h-300c-24 0 -56 17 -56 57c0 58 27 113 86 202l141 211c26 39 53 78 59 107h-286v33c0 46 25 75 81 75h284c30 0 54 -30 54 -58c0 -63 -30 -121 -69 -179l-138 -203c-35 -51 -69 -100 -77 -136h285v-46zM136 892l132 -60l130 61v-35
c0 -45 -13 -61 -50 -83l-81 -49l-79 48c-39 23 -52 40 -52 87v31z" />
    <glyph glyph-name="zcaron" unicode="&#x17e;" horiz-adv-x="413" 
d="M381 57c0 -31 -27 -57 -57 -57h-215c-51 0 -74 29 -74 64c0 40 30 96 69 152l112 162c15 22 28 45 29 58h-210v39c0 37 26 65 74 65h200c48 0 69 -33 69 -65c0 -42 -12 -84 -47 -134l-122 -174c-24 -34 -35 -54 -37 -62h209v-48zM90 745l132 -60l130 61v-35
c0 -45 -13 -61 -50 -83l-81 -49l-79 48c-39 23 -52 40 -52 87v31z" />
    <glyph glyph-name="onehalf" unicode="&#xbd;" horiz-adv-x="812" 
d="M760 47c0 -31 -24 -47 -55 -47h-167c-24 0 -44 19 -44 46c0 32 20 61 55 98l71 74c27 29 42 48 42 72c0 34 -26 48 -60 48c-46 0 -77 -13 -100 -48h-3v33c0 58 39 99 129 99c73 0 129 -50 129 -127c0 -47 -18 -76 -50 -107l-85 -82c-7 -7 -16 -18 -21 -25h159v-34z
M239 277h-39c-31 0 -54 20 -54 56v262l-26 -11c-37 -16 -64 -1 -70 30l-5 25l72 37c25 13 51 20 74 20c24 0 48 -18 48 -49v-370zM535 635c0 -12 -3 -25 -8 -38l-225 -597h-29c-22 0 -42 18 -42 52c0 14 3 31 10 49l222 584h30c26 0 42 -22 42 -50z" />
    <glyph glyph-name="onequarter" unicode="&#xbc;" horiz-adv-x="812" 
d="M239 277h-39c-31 0 -54 20 -54 56v262l-26 -11c-37 -16 -64 -1 -70 30l-5 25l72 37c25 13 51 20 74 20c24 0 48 -18 48 -49v-370zM535 635c0 -12 -3 -25 -8 -38l-225 -597h-29c-22 0 -42 18 -42 52c0 14 3 31 10 49l222 584h30c26 0 42 -22 42 -50zM753 133
c0 -25 -14 -39 -38 -39h-12v-94h-36c-33 0 -57 15 -57 48v46h-104c-27 0 -53 19 -53 43c0 23 5 38 10 49c37 82 109 193 148 228h36c33 0 56 -24 56 -65v-174h50v-42zM607 175v122c-21 -35 -47 -87 -63 -122h63z" />
    <glyph glyph-name="onesuperior" unicode="&#xb9;" horiz-adv-x="340" 
d="M209 277h-39c-31 0 -54 20 -54 56v262l-26 -11c-37 -16 -64 -1 -70 30l-5 25l72 37c25 13 51 20 74 20c24 0 48 -18 48 -49v-370z" />
    <glyph glyph-name="threequarters" unicode="&#xbe;" horiz-adv-x="812" 
d="M555 635c0 -12 -3 -25 -8 -38l-225 -597h-29c-22 0 -42 18 -42 52c0 14 3 31 10 49l222 584h30c26 0 42 -22 42 -50zM763 133c0 -25 -14 -39 -38 -39h-12v-94h-36c-33 0 -57 15 -57 48v46h-104c-27 0 -53 19 -53 43c0 23 5 38 10 49c37 82 109 193 148 228h36
c33 0 56 -24 56 -65v-174h50v-42zM617 175v122c-21 -35 -47 -87 -63 -122h63zM303 400c0 -84 -50 -135 -144 -135c-57 0 -114 29 -114 86v39h3c24 -28 60 -40 106 -40c39 0 56 21 56 46c0 34 -21 47 -59 49c-30 1 -45 14 -45 38v30c15 2 33 3 47 3c37 0 54 14 54 46
c0 31 -14 50 -62 50c-37 0 -75 -14 -94 -40h-3v42c0 39 36 82 123 82c69 0 130 -45 130 -118c0 -55 -25 -82 -52 -92c26 -13 54 -46 54 -86z" />
    <glyph glyph-name="threesuperior" unicode="&#xb3;" horiz-adv-x="340" 
d="M303 400c0 -84 -50 -135 -144 -135c-57 0 -114 29 -114 86v39h3c24 -28 60 -40 106 -40c39 0 56 21 56 46c0 34 -21 47 -59 49c-30 1 -45 14 -45 38v30c15 2 33 3 47 3c37 0 54 14 54 46c0 31 -14 50 -62 50c-37 0 -75 -14 -94 -40h-3v42c0 39 36 82 123 82
c69 0 130 -45 130 -118c0 -55 -25 -82 -52 -92c26 -13 54 -46 54 -86z" />
    <glyph glyph-name="twosuperior" unicode="&#xb2;" horiz-adv-x="340" 
d="M308 321c0 -32 -24 -47 -55 -47h-166c-25 0 -45 19 -45 45c0 33 20 62 55 99l71 74c27 29 42 48 42 72c0 34 -26 48 -60 48c-46 0 -77 -14 -99 -48h-3v33c0 58 38 99 128 99c73 0 129 -50 129 -127c0 -47 -18 -76 -50 -107l-84 -82c-8 -8 -17 -18 -21 -25h158v-34z" />
    <glyph glyph-name="brokenbar" unicode="&#xa6;" horiz-adv-x="257" 
d="M156 322h-21c-19 0 -41 17 -41 45v353h20c20 0 42 -14 42 -40v-358zM156 -170h-21c-19 0 -41 17 -41 45v353h20c20 0 42 -14 42 -40v-358z" />
    <glyph glyph-name="minus" unicode="&#x2212;" 
d="M413 353v-55c0 -35 -25 -55 -65 -55h-274v52c0 33 23 58 62 58h277z" />
    <glyph glyph-name="multiply" unicode="&#xd7;" 
d="M423 88c-22 -23 -47 -22 -71 7l-108 126l-143 -159l-29 26c-16 15 -20 66 1 89l105 121l-141 167l33 29c24 21 49 23 72 -3l102 -117l132 150l33 -33c20 -20 21 -56 -5 -85l-94 -108l148 -174z" />
    <glyph glyph-name="Adieresis" unicode="&#xc4;" horiz-adv-x="524" 
d="M512 0h-45c-49 0 -81 28 -85 61c-5 44 -14 92 -18 114h-217c-12 -59 -20 -118 -28 -175h-53c-37 0 -51 21 -51 61c0 97 110 508 191 624h50c46 0 79 -33 95 -66c52 -109 139 -425 161 -619zM342 270c-18 92 -55 218 -86 292c-33 -79 -67 -194 -86 -292h172zM338 869
c34 0 63 -27 63 -61s-29 -63 -63 -63s-61 29 -61 63s27 61 61 61zM161 869c34 0 61 -27 61 -61s-27 -63 -61 -63s-62 29 -62 63s28 61 62 61z" />
    <glyph glyph-name="Aring" unicode="&#xc5;" horiz-adv-x="524" 
d="M514 0h-45c-49 0 -81 28 -85 61c-5 44 -14 92 -18 114h-217c-12 -59 -20 -118 -28 -175h-53c-37 0 -51 21 -51 61c0 87 89 425 165 579c-22 16 -42 49 -42 90c0 70 46 116 116 116c72 0 114 -46 114 -115c0 -35 -14 -64 -35 -84c58 -86 160 -462 179 -647zM297 730
c0 34 -15 51 -41 51s-41 -16 -41 -52c0 -31 13 -52 42 -52c27 0 40 18 40 53zM344 270c-18 92 -55 218 -86 292c-33 -79 -67 -194 -86 -292h172z" />
    <glyph glyph-name="Ccedilla" unicode="&#xc7;" horiz-adv-x="503" 
d="M483 510h-6c-36 52 -84 75 -146 75c-92 0 -166 -88 -166 -231c0 -178 77 -254 166 -254c76 0 118 27 147 68h5v-46c0 -76 -57 -128 -153 -134c0 -10 -1 -19 -2 -28c46 -2 85 -25 85 -79c0 -67 -48 -94 -108 -94c-56 0 -82 22 -82 60v24h8c19 -16 44 -21 70 -21
c27 0 37 8 37 27c0 16 -11 30 -39 30c-15 0 -28 -1 -45 -5c7 31 14 61 20 90c-108 21 -232 129 -232 343c0 209 110 362 283 362c95 0 158 -56 158 -140v-47z" />
    <glyph glyph-name="Eacute" unicode="&#xc9;" horiz-adv-x="471" 
d="M442 122v-44c0 -49 -32 -84 -120 -84h-57c-141 0 -215 85 -215 268v128c0 65 5 149 11 200c9 74 41 95 86 95h303v-47c0 -41 -26 -63 -73 -63h-197c-7 -52 -10 -128 -10 -177h216v-46c0 -38 -24 -59 -66 -59h-150v-38c0 -121 31 -151 119 -151h37c40 0 89 7 116 18z
M405 843c0 -31 -22 -55 -59 -73c-29 -14 -69 -26 -104 -26h-41v5c14 24 36 59 61 87c27 31 55 58 91 58c30 0 52 -15 52 -51z" />
    <glyph glyph-name="Ntilde" unicode="&#xd1;" horiz-adv-x="576" 
d="M518 0h-46c-56 0 -109 32 -163 171l-106 272c-8 20 -19 46 -29 71v-514h-48c-33 0 -68 29 -68 81v604h56c78 0 130 -53 162 -139l93 -248c12 -32 26 -69 36 -107v494h52c31 0 61 -26 61 -67v-618zM434 834c0 -52 -32 -89 -86 -89c-29 0 -51 15 -70 29
c-18 13 -37 27 -50 27c-15 0 -31 -9 -31 -38v-18h-20c-22 0 -43 19 -43 51c0 67 49 90 85 90c26 0 52 -13 70 -27c17 -12 36 -28 53 -28c19 0 30 11 30 35v22h25c20 0 37 -20 37 -54z" />
    <glyph glyph-name="Odieresis" unicode="&#xd6;" horiz-adv-x="590" 
d="M548 353c0 -233 -102 -365 -259 -365c-133 0 -247 126 -247 345c0 220 89 364 260 364c134 0 246 -119 246 -344zM429 334c0 177 -48 252 -138 252c-73 0 -130 -77 -130 -233c0 -187 56 -254 141 -254c72 0 127 73 127 235zM382 869c34 0 63 -27 63 -61s-29 -63 -63 -63
s-61 29 -61 63s27 61 61 61zM205 869c34 0 61 -27 61 -61s-27 -63 -61 -63s-62 29 -62 63s28 61 62 61z" />
    <glyph glyph-name="Udieresis" unicode="&#xdc;" horiz-adv-x="557" 
d="M502 258c0 -174 -78 -270 -231 -270c-133 0 -216 97 -216 271v426h46c39 0 73 -25 73 -99v-324c0 -113 39 -159 110 -159c70 0 99 44 99 152v430h46c44 0 73 -26 73 -95v-332zM356 869c34 0 63 -27 63 -61s-29 -63 -63 -63s-61 29 -61 63s27 61 61 61zM179 869
c34 0 61 -27 61 -61s-27 -63 -61 -63s-62 29 -62 63s28 61 62 61z" />
    <glyph glyph-name="aacute" unicode="&#xe1;" horiz-adv-x="439" 
d="M400 184c0 -122 -62 -196 -169 -196c-108 0 -195 50 -195 170c0 102 60 172 216 172h33v21c0 76 -28 96 -88 96c-77 0 -117 -29 -137 -61h-6v46c0 52 43 120 161 120c108 0 185 -60 185 -221v-147zM286 180v58h-34c-77 0 -100 -26 -100 -74c0 -47 25 -73 72 -73
c42 0 62 22 62 89zM351 705c0 -31 -22 -55 -59 -73c-29 -14 -69 -26 -104 -26h-41v5c14 24 36 59 61 87c27 31 55 58 91 58c30 0 52 -15 52 -51z" />
    <glyph glyph-name="agrave" unicode="&#xe0;" horiz-adv-x="439" 
d="M400 184c0 -122 -62 -196 -169 -196c-108 0 -195 50 -195 170c0 102 60 172 216 172h33v21c0 76 -28 96 -88 96c-77 0 -117 -29 -137 -61h-6v46c0 52 43 120 161 120c108 0 185 -60 185 -221v-147zM286 180v58h-34c-77 0 -100 -26 -100 -74c0 -47 25 -73 72 -73
c42 0 62 22 62 89zM71 705c0 36 22 51 52 51c36 0 64 -27 91 -58c25 -28 47 -63 61 -87v-5h-41c-35 0 -75 12 -104 26c-37 18 -59 42 -59 73z" />
    <glyph glyph-name="acircumflex" unicode="&#xe2;" horiz-adv-x="439" 
d="M344 587l-132 60l-130 -61v35c0 45 13 61 50 83l81 49l79 -48c39 -23 52 -40 52 -87v-31zM398 184c0 -122 -62 -196 -169 -196c-108 0 -195 50 -195 170c0 102 60 172 216 172h33v21c0 76 -28 96 -88 96c-77 0 -117 -29 -137 -61h-6v46c0 52 43 120 161 120
c108 0 185 -60 185 -221v-147zM284 180v58h-34c-77 0 -100 -26 -100 -74c0 -47 25 -73 72 -73c42 0 62 22 62 89z" />
    <glyph glyph-name="adieresis" unicode="&#xe4;" horiz-adv-x="439" 
d="M400 184c0 -122 -62 -196 -169 -196c-108 0 -195 50 -195 170c0 102 60 172 216 172h33v21c0 76 -28 96 -88 96c-77 0 -117 -29 -137 -61h-6v46c0 52 43 120 161 120c108 0 185 -60 185 -221v-147zM286 180v58h-34c-77 0 -100 -26 -100 -74c0 -47 25 -73 72 -73
c42 0 62 22 62 89zM303 729c34 0 63 -27 63 -61s-29 -63 -63 -63s-61 29 -61 63s27 61 61 61zM126 729c34 0 61 -27 61 -61s-27 -63 -61 -63s-62 29 -62 63s28 61 62 61z" />
    <glyph glyph-name="atilde" unicode="&#xe3;" horiz-adv-x="439" 
d="M400 184c0 -122 -62 -196 -169 -196c-108 0 -195 50 -195 170c0 102 60 172 216 172h33v21c0 76 -28 96 -88 96c-77 0 -117 -29 -137 -61h-6v46c0 52 43 120 161 120c108 0 185 -60 185 -221v-147zM286 180v58h-34c-77 0 -100 -26 -100 -74c0 -47 25 -73 72 -73
c42 0 62 22 62 89zM363 695c0 -52 -32 -89 -86 -89c-29 0 -51 15 -70 29c-18 13 -37 27 -50 27c-15 0 -31 -9 -31 -38v-18h-20c-22 0 -43 19 -43 51c0 67 49 90 85 90c26 0 52 -13 70 -27c17 -12 36 -28 53 -28c19 0 30 11 30 35v22h25c20 0 37 -20 37 -54z" />
    <glyph glyph-name="aring" unicode="&#xe5;" horiz-adv-x="439" 
d="M400 184c0 -122 -62 -196 -169 -196c-108 0 -195 50 -195 170c0 102 60 172 216 172h33v21c0 76 -28 96 -88 96c-77 0 -117 -29 -137 -61h-6v46c0 52 43 120 161 120c108 0 185 -60 185 -221v-147zM286 180v58h-34c-77 0 -100 -26 -100 -74c0 -47 25 -73 72 -73
c42 0 62 22 62 89zM329 712c0 -68 -43 -115 -114 -115c-70 0 -116 45 -116 114c0 74 46 116 116 116c72 0 114 -43 114 -115zM256 712c0 34 -15 54 -41 54s-41 -19 -41 -55c0 -31 15 -53 40 -53c27 0 42 19 42 54z" />
    <glyph glyph-name="ccedilla" unicode="&#xe7;" horiz-adv-x="420" 
d="M396 376h-7c-16 41 -56 65 -116 65c-62 0 -118 -66 -118 -161c0 -111 48 -181 120 -181c62 0 96 26 112 56h7v-55c0 -63 -47 -107 -121 -112c0 -10 -1 -19 -2 -28c46 -2 85 -25 85 -79c0 -67 -49 -94 -109 -94c-56 0 -81 22 -81 60v24h8c19 -16 43 -21 69 -21
c27 0 38 8 38 27c0 16 -12 30 -40 30c-15 0 -27 -1 -44 -5c7 31 13 61 19 91c-103 23 -183 127 -183 266c0 169 89 293 240 293c74 0 123 -51 123 -117v-59z" />
    <glyph glyph-name="eacute" unicode="&#xe9;" horiz-adv-x="463" 
d="M430 353c0 -102 -56 -133 -199 -135l-77 -1c8 -82 55 -124 120 -124c51 0 98 11 133 51h5v-42c0 -63 -40 -114 -161 -114c-114 0 -216 101 -216 271c0 183 86 293 216 293c94 0 179 -71 179 -199zM318 362c0 56 -29 88 -77 88c-72 0 -88 -87 -88 -142l49 1
c97 2 116 13 116 53zM391 705c0 -31 -22 -55 -59 -73c-29 -14 -69 -26 -104 -26h-41v5c14 24 36 59 61 87c27 31 55 58 91 58c30 0 52 -15 52 -51z" />
    <glyph glyph-name="egrave" unicode="&#xe8;" horiz-adv-x="463" 
d="M430 353c0 -102 -56 -133 -199 -135l-77 -1c8 -82 55 -124 120 -124c51 0 98 11 133 51h5v-42c0 -63 -40 -114 -161 -114c-114 0 -216 101 -216 271c0 183 86 293 216 293c94 0 179 -71 179 -199zM318 362c0 56 -29 88 -77 88c-72 0 -88 -87 -88 -142l49 1
c97 2 116 13 116 53zM89 706c0 36 22 51 52 51c36 0 64 -27 91 -58c25 -28 47 -63 61 -87v-5h-41c-35 0 -75 12 -104 26c-37 18 -59 42 -59 73z" />
    <glyph glyph-name="ecircumflex" unicode="&#xea;" horiz-adv-x="463" 
d="M430 353c0 -102 -56 -133 -199 -135l-77 -1c8 -82 55 -124 120 -124c51 0 98 11 133 51h5v-42c0 -63 -40 -114 -161 -114c-114 0 -216 101 -216 271c0 183 86 293 216 293c94 0 179 -71 179 -199zM318 362c0 56 -29 88 -77 88c-72 0 -88 -87 -88 -142l49 1
c97 2 116 13 116 53zM377 587l-132 60l-130 -61v35c0 45 13 61 50 83l81 49l79 -48c39 -23 52 -40 52 -87v-31z" />
    <glyph glyph-name="edieresis" unicode="&#xeb;" horiz-adv-x="463" 
d="M430 353c0 -102 -56 -133 -199 -135l-77 -1c8 -82 55 -124 120 -124c51 0 98 11 133 51h5v-42c0 -63 -40 -114 -161 -114c-114 0 -216 101 -216 271c0 183 86 293 216 293c94 0 179 -71 179 -199zM318 362c0 56 -29 88 -77 88c-72 0 -88 -87 -88 -142l49 1
c97 2 116 13 116 53zM325 730c34 0 63 -27 63 -61s-29 -63 -63 -63s-61 29 -61 63s27 61 61 61zM148 730c34 0 61 -27 61 -61s-27 -63 -61 -63s-62 29 -62 63s28 61 62 61z" />
    <glyph glyph-name="iacute" unicode="&#xed;" horiz-adv-x="272" 
d="M271 55c0 -44 -27 -64 -70 -64c-83 0 -136 48 -136 158v391h37c55 0 80 -25 80 -80v-292c0 -59 21 -79 73 -79h16v-34zM261 705c0 -31 -22 -55 -59 -73c-29 -14 -69 -26 -104 -26h-41v5c14 24 36 59 61 87c27 31 55 58 91 58c30 0 52 -15 52 -51z" />
    <glyph glyph-name="igrave" unicode="&#xec;" horiz-adv-x="272" 
d="M271 55c0 -44 -27 -64 -70 -64c-83 0 -136 48 -136 158v391h37c55 0 80 -25 80 -80v-292c0 -59 21 -79 73 -79h16v-34zM-24 705c0 36 22 51 52 51c36 0 64 -27 91 -58c25 -28 47 -63 61 -87v-5h-41c-35 0 -75 12 -104 26c-37 18 -59 42 -59 73z" />
    <glyph glyph-name="icircumflex" unicode="&#xee;" horiz-adv-x="272" 
d="M271 55c0 -44 -27 -64 -70 -64c-83 0 -136 48 -136 158v391h37c55 0 80 -25 80 -80v-292c0 -59 21 -79 73 -79h16v-34zM253 587l-132 60l-130 -61v35c0 45 13 61 50 83l81 49l79 -48c39 -23 52 -40 52 -87v-31z" />
    <glyph glyph-name="idieresis" unicode="&#xef;" horiz-adv-x="272" 
d="M271 55c0 -44 -27 -64 -70 -64c-83 0 -136 48 -136 158v391h37c55 0 80 -25 80 -80v-292c0 -59 21 -79 73 -79h16v-34zM210 730c34 0 63 -27 63 -61s-29 -63 -63 -63s-61 29 -61 63s27 61 61 61zM33 730c34 0 61 -27 61 -61s-27 -63 -61 -63s-62 29 -62 63s28 61 62 61z
" />
    <glyph glyph-name="ntilde" unicode="&#xf1;" horiz-adv-x="500" 
d="M447 0h-40c-47 0 -78 29 -78 79v234c0 102 -27 130 -85 130c-44 0 -72 -37 -72 -125v-318h-43c-47 0 -76 30 -76 79v243c0 136 63 230 205 230c108 0 189 -74 189 -229v-323zM392 695c0 -52 -32 -89 -86 -89c-29 0 -51 15 -70 29c-18 13 -37 27 -50 27
c-15 0 -31 -9 -31 -38v-18h-20c-22 0 -43 19 -43 51c0 67 49 90 85 90c26 0 52 -13 70 -27c17 -12 36 -28 53 -28c19 0 30 11 30 35v22h25c20 0 37 -20 37 -54z" />
    <glyph glyph-name="oacute" unicode="&#xf3;" horiz-adv-x="495" 
d="M461 279c0 -167 -73 -291 -218 -291c-135 0 -209 125 -209 272c0 172 72 292 219 292c134 0 208 -120 208 -273zM341 258c0 131 -32 186 -98 186c-57 0 -89 -60 -89 -165c0 -119 29 -182 98 -182c58 0 89 57 89 161zM386 705c0 -31 -22 -55 -59 -73
c-29 -14 -69 -26 -104 -26h-41v5c14 24 36 59 61 87c27 31 55 58 91 58c30 0 52 -15 52 -51z" />
    <glyph glyph-name="ograve" unicode="&#xf2;" horiz-adv-x="495" 
d="M461 279c0 -167 -73 -291 -218 -291c-135 0 -209 125 -209 272c0 172 72 292 219 292c134 0 208 -120 208 -273zM341 258c0 131 -32 186 -98 186c-57 0 -89 -60 -89 -165c0 -119 29 -182 98 -182c58 0 89 57 89 161zM94 705c0 36 22 51 52 51c36 0 64 -27 91 -58
c25 -28 47 -63 61 -87v-5h-41c-35 0 -75 12 -104 26c-37 18 -59 42 -59 73z" />
    <glyph glyph-name="ocircumflex" unicode="&#xf4;" horiz-adv-x="495" 
d="M461 279c0 -167 -73 -291 -218 -291c-135 0 -209 125 -209 272c0 172 72 292 219 292c134 0 208 -120 208 -273zM341 258c0 131 -32 186 -98 186c-57 0 -89 -60 -89 -165c0 -119 29 -182 98 -182c58 0 89 57 89 161zM381 587l-132 60l-130 -61v35c0 45 13 61 50 83l81 49
l79 -48c39 -23 52 -40 52 -87v-31z" />
    <glyph glyph-name="odieresis" unicode="&#xf6;" horiz-adv-x="495" 
d="M461 279c0 -167 -73 -291 -218 -291c-135 0 -209 125 -209 272c0 172 72 292 219 292c134 0 208 -120 208 -273zM341 258c0 131 -32 186 -98 186c-57 0 -89 -60 -89 -165c0 -119 29 -182 98 -182c58 0 89 57 89 161zM338 730c34 0 63 -27 63 -61s-29 -63 -63 -63
s-61 29 -61 63s27 61 61 61zM161 730c34 0 61 -27 61 -61s-27 -63 -61 -63s-62 29 -62 63s28 61 62 61z" />
    <glyph glyph-name="otilde" unicode="&#xf5;" horiz-adv-x="495" 
d="M461 279c0 -167 -73 -291 -218 -291c-135 0 -209 125 -209 272c0 172 72 292 219 292c134 0 208 -120 208 -273zM341 258c0 131 -32 186 -98 186c-57 0 -89 -60 -89 -165c0 -119 29 -182 98 -182c58 0 89 57 89 161zM399 695c0 -52 -32 -89 -86 -89c-29 0 -51 15 -70 29
c-18 13 -37 27 -50 27c-15 0 -31 -9 -31 -38v-18h-20c-22 0 -43 19 -43 51c0 67 49 90 85 90c26 0 52 -13 70 -27c17 -12 36 -28 53 -28c19 0 30 11 30 35v22h25c20 0 37 -20 37 -54z" />
    <glyph glyph-name="uacute" unicode="&#xfa;" horiz-adv-x="500" 
d="M447 230c0 -161 -64 -242 -199 -242c-110 0 -195 73 -195 234v319h32c58 0 88 -29 88 -83v-225c0 -105 32 -136 84 -136c43 0 71 29 71 126v317h32c58 0 87 -29 87 -82v-228zM370 705c0 -31 -22 -55 -59 -73c-29 -14 -69 -26 -104 -26h-41v5c14 24 36 59 61 87
c27 31 55 58 91 58c30 0 52 -15 52 -51z" />
    <glyph glyph-name="ugrave" unicode="&#xf9;" horiz-adv-x="500" 
d="M447 230c0 -161 -64 -242 -199 -242c-110 0 -195 73 -195 234v319h32c58 0 88 -29 88 -83v-225c0 -105 32 -136 84 -136c43 0 71 29 71 126v317h32c58 0 87 -29 87 -82v-228zM89 705c0 36 22 51 52 51c36 0 64 -27 91 -58c25 -28 47 -63 61 -87v-5h-41
c-35 0 -75 12 -104 26c-37 18 -59 42 -59 73z" />
    <glyph glyph-name="ucircumflex" unicode="&#xfb;" horiz-adv-x="500" 
d="M447 230c0 -161 -64 -242 -199 -242c-110 0 -195 73 -195 234v319h32c58 0 88 -29 88 -83v-225c0 -105 32 -136 84 -136c43 0 71 29 71 126v317h32c58 0 87 -29 87 -82v-228zM375 587l-132 60l-130 -61v35c0 45 13 61 50 83l81 49l79 -48c39 -23 52 -40 52 -87v-31z" />
    <glyph glyph-name="udieresis" unicode="&#xfc;" horiz-adv-x="500" 
d="M447 230c0 -161 -64 -242 -199 -242c-110 0 -195 73 -195 234v319h32c58 0 88 -29 88 -83v-225c0 -105 32 -136 84 -136c43 0 71 29 71 126v317h32c58 0 87 -29 87 -82v-228zM330 730c34 0 63 -27 63 -61s-29 -63 -63 -63s-61 29 -61 63s27 61 61 61zM153 730
c34 0 61 -27 61 -61s-27 -63 -61 -63s-62 29 -62 63s28 61 62 61z" />
    <glyph glyph-name="degree" unicode="&#xb0;" horiz-adv-x="353" 
d="M307 593c0 -76 -54 -137 -130 -137c-77 0 -131 60 -131 136s52 139 131 139c73 0 130 -54 130 -138zM239 592c0 39 -26 70 -62 70s-61 -28 -61 -70c0 -37 25 -68 60 -68c37 0 63 29 63 68z" />
    <glyph glyph-name="registered" unicode="&#xae;" horiz-adv-x="796" 
d="M398 695c194 0 351 -157 351 -351s-157 -352 -351 -352s-351 158 -351 352s157 351 351 351zM681 344c0 156 -127 282 -283 282s-283 -126 -283 -282s127 -283 283 -283s283 127 283 283zM557 169c-12 -11 -25 -14 -43 -14c-51 0 -65 35 -83 76c-14 32 -24 64 -58 70
c-8 1 -13 2 -31 4v-150h-33c-38 0 -55 23 -55 55v313c30 9 76 17 103 17h44c77 0 131 -44 131 -114c0 -42 -23 -85 -73 -98c24 -14 32 -33 41 -50c17 -33 42 -85 57 -104c0 0 -1 -3 0 -5zM444 418c0 34 -19 52 -53 52h-22c-4 0 -14 0 -27 -2v-97c21 -2 33 -3 49 -3
c29 0 53 19 53 50z" />
    <glyph glyph-name="copyright" unicode="&#xa9;" horiz-adv-x="796" 
d="M749 344c0 -194 -157 -352 -351 -352s-351 158 -351 352s157 351 351 351s351 -157 351 -351zM681 344c0 156 -127 282 -283 282s-283 -126 -283 -282s127 -283 283 -283s283 127 283 283zM538 417h-8c-15 27 -52 54 -100 54c-74 0 -112 -53 -112 -119
c0 -86 49 -129 113 -129c36 0 74 13 99 40h6v-34c0 -45 -50 -81 -117 -81c-102 0 -188 80 -188 193c0 118 73 203 194 203c71 0 113 -41 113 -90v-37z" />
    <glyph glyph-name="trademark" unicode="&#x2122;" horiz-adv-x="692" 
d="M652 315h-35c-28 0 -48 16 -48 57c0 31 -2 110 -7 201c-16 -64 -35 -138 -51 -189c-8 -26 -21 -54 -30 -69h-9c-27 0 -48 29 -67 111c-6 28 -28 120 -35 149c-6 -98 -8 -196 -8 -260h-30c-25 0 -47 17 -47 52c0 106 11 242 24 327h30c46 0 70 -29 80 -61
c20 -63 34 -130 49 -195c14 54 28 110 45 165c13 43 28 78 43 91h21c36 0 54 -24 60 -82c9 -88 15 -192 15 -297zM264 659c0 -21 -20 -42 -45 -42h-39v-302h-39c-25 0 -44 14 -44 47v255h-82v29c0 21 14 48 44 48h205v-35z" />
    <glyph glyph-name="plusminus" unicode="&#xb1;" 
d="M454 408c0 -30 -26 -57 -71 -57h-85v-174h-41c-34 0 -61 25 -61 68v106h-160v47c0 26 23 54 60 54h100v162h50c26 0 52 -23 52 -61v-101h156v-44zM441 52c0 -28 -26 -52 -54 -52h-343v34c0 33 24 55 59 55h338v-37z" />
    <glyph glyph-name="mu" unicode="&#xb5;" horiz-adv-x="489" 
d="M442 227c0 -162 -70 -239 -181 -239c-41 0 -72 16 -93 52v-210h-50c-35 0 -67 21 -67 67v643h52c44 0 67 -22 67 -69v-261c0 -86 23 -120 81 -120c44 0 72 28 72 122v328h50c43 0 69 -23 69 -69v-244z" />
    <glyph glyph-name="logicalnot" unicode="&#xac;" horiz-adv-x="555" 
d="M529 443v-357h-122v228h-381v129h503z" />
    <glyph glyph-name="Agrave" unicode="&#xc0;" horiz-adv-x="524" 
d="M512 0h-45c-49 0 -81 28 -85 61c-5 44 -14 92 -18 114h-217c-12 -59 -20 -118 -28 -175h-53c-37 0 -51 21 -51 61c0 97 110 508 191 624h50c46 0 79 -33 95 -66c52 -109 139 -425 161 -619zM342 270c-18 92 -55 218 -86 292c-33 -79 -67 -194 -86 -292h172zM100 845
c0 36 22 51 52 51c36 0 64 -27 91 -58c25 -28 47 -63 61 -87v-5h-41c-35 0 -75 12 -104 26c-37 18 -59 42 -59 73z" />
    <glyph glyph-name="Atilde" unicode="&#xc3;" horiz-adv-x="524" 
d="M512 0h-45c-49 0 -81 28 -85 61c-5 44 -14 92 -18 114h-217c-12 -59 -20 -118 -28 -175h-53c-37 0 -51 21 -51 61c0 97 110 508 191 624h50c46 0 79 -33 95 -66c52 -109 139 -425 161 -619zM342 270c-18 92 -55 218 -86 292c-33 -79 -67 -194 -86 -292h172zM388 834
c0 -52 -32 -89 -86 -89c-29 0 -51 15 -70 29c-18 13 -37 27 -50 27c-15 0 -31 -9 -31 -38v-18h-20c-22 0 -43 19 -43 51c0 67 49 90 85 90c26 0 52 -13 70 -27c17 -12 36 -28 53 -28c19 0 30 11 30 35v22h25c20 0 37 -20 37 -54z" />
    <glyph glyph-name="Otilde" unicode="&#xd5;" horiz-adv-x="590" 
d="M548 353c0 -233 -102 -365 -259 -365c-133 0 -247 126 -247 345c0 220 89 364 260 364c134 0 246 -119 246 -344zM429 334c0 177 -48 252 -138 252c-73 0 -130 -77 -130 -233c0 -187 56 -254 141 -254c72 0 127 73 127 235zM445 833c0 -52 -32 -89 -86 -89
c-29 0 -51 15 -70 29c-18 13 -37 27 -50 27c-15 0 -31 -9 -31 -38v-18h-20c-22 0 -43 19 -43 51c0 67 49 90 85 90c26 0 52 -13 70 -27c17 -12 36 -28 53 -28c19 0 30 11 30 35v22h25c20 0 37 -20 37 -54z" />
    <glyph glyph-name="divide" unicode="&#xf7;" horiz-adv-x="199" 
 />
    <glyph glyph-name="ydieresis" unicode="&#xff;" horiz-adv-x="431" 
d="M319 112c-82 -214 -125 -285 -202 -285c-50 0 -81 19 -81 64v35l46 3c33 2 54 16 84 105c-68 117 -141 369 -154 506h64c33 0 63 -25 68 -59c13 -94 44 -225 81 -313c35 96 76 253 85 372h56c28 0 50 -22 50 -49c0 -67 -35 -216 -97 -379zM308 730c34 0 63 -27 63 -61
s-29 -63 -63 -63s-61 29 -61 63s27 61 61 61zM131 730c34 0 61 -27 61 -61s-27 -63 -61 -63s-62 29 -62 63s28 61 62 61z" />
    <glyph glyph-name="Ydieresis" unicode="&#x178;" horiz-adv-x="476" 
d="M464 644c0 -51 -112 -278 -166 -354v-290h-51c-36 0 -72 28 -72 82v208c-66 102 -136 261 -170 394h53c42 0 71 -23 80 -49c26 -75 64 -164 105 -243c48 90 94 193 120 292h63c25 0 38 -23 38 -40zM328 869c34 0 63 -27 63 -61s-29 -63 -63 -63s-61 29 -61 63
s27 61 61 61zM151 869c34 0 61 -27 61 -61s-27 -63 -61 -63s-62 29 -62 63s28 61 62 61z" />
    <glyph glyph-name="Acircumflex" unicode="&#xc2;" horiz-adv-x="524" 
d="M512 0h-45c-49 0 -81 28 -85 61c-5 44 -14 92 -18 114h-217c-12 -59 -20 -118 -28 -175h-53c-37 0 -51 21 -51 61c0 97 110 508 191 624h50c46 0 79 -33 95 -66c52 -109 139 -425 161 -619zM342 270c-18 92 -55 218 -86 292c-33 -79 -67 -194 -86 -292h172zM383 726
l-132 60l-130 -61v35c0 45 13 61 50 83l81 49l79 -48c39 -23 52 -40 52 -87v-31z" />
    <glyph glyph-name="Ecircumflex" unicode="&#xca;" horiz-adv-x="471" 
d="M442 122v-44c0 -49 -32 -84 -120 -84h-57c-141 0 -215 85 -215 268v128c0 65 5 149 11 200c9 74 41 95 86 95h303v-47c0 -41 -26 -63 -73 -63h-197c-7 -52 -10 -128 -10 -177h216v-46c0 -38 -24 -59 -66 -59h-150v-38c0 -121 31 -151 119 -151h37c40 0 89 7 116 18z
M382 726l-132 60l-130 -61v35c0 45 13 61 50 83l81 49l79 -48c39 -23 52 -40 52 -87v-31z" />
    <glyph glyph-name="Aacute" unicode="&#xc1;" horiz-adv-x="524" 
d="M512 0h-45c-49 0 -81 28 -85 61c-5 44 -14 92 -18 114h-217c-12 -59 -20 -118 -28 -175h-53c-37 0 -51 21 -51 61c0 97 110 508 191 624h50c46 0 79 -33 95 -66c52 -109 139 -425 161 -619zM342 270c-18 92 -55 218 -86 292c-33 -79 -67 -194 -86 -292h172zM400 844
c0 -31 -22 -55 -59 -73c-29 -14 -69 -26 -104 -26h-41v5c14 24 36 59 61 87c27 31 55 58 91 58c30 0 52 -15 52 -51z" />
    <glyph glyph-name="Edieresis" unicode="&#xcb;" horiz-adv-x="471" 
d="M442 122v-44c0 -49 -32 -84 -120 -84h-57c-141 0 -215 85 -215 268v128c0 65 5 149 11 200c9 74 41 95 86 95h303v-47c0 -41 -26 -63 -73 -63h-197c-7 -52 -10 -128 -10 -177h216v-46c0 -38 -24 -59 -66 -59h-150v-38c0 -121 31 -151 119 -151h37c40 0 89 7 116 18z
M338 870c34 0 63 -27 63 -61s-29 -63 -63 -63s-61 29 -61 63s27 61 61 61zM161 870c34 0 61 -27 61 -61s-27 -63 -61 -63s-62 29 -62 63s28 61 62 61z" />
    <glyph glyph-name="Egrave" unicode="&#xc8;" horiz-adv-x="471" 
d="M442 122v-44c0 -49 -32 -84 -120 -84h-57c-141 0 -215 85 -215 268v128c0 65 5 149 11 200c9 74 41 95 86 95h303v-47c0 -41 -26 -63 -73 -63h-197c-7 -52 -10 -128 -10 -177h216v-46c0 -38 -24 -59 -66 -59h-150v-38c0 -121 31 -151 119 -151h37c40 0 89 7 116 18z
M106 844c0 36 22 51 52 51c36 0 64 -27 91 -58c25 -28 47 -63 61 -87v-5h-41c-35 0 -75 12 -104 26c-37 18 -59 42 -59 73z" />
    <glyph glyph-name="Iacute" unicode="&#xcd;" horiz-adv-x="244" 
d="M183 0h-45c-39 0 -77 26 -77 80v605h52c37 0 70 -27 70 -71v-614zM245 844c0 -31 -22 -55 -59 -73c-29 -14 -69 -26 -104 -26h-41v5c14 24 36 59 61 87c27 31 55 58 91 58c30 0 52 -15 52 -51z" />
    <glyph glyph-name="Icircumflex" unicode="&#xce;" horiz-adv-x="244" 
d="M183 0h-45c-39 0 -77 26 -77 80v605h52c37 0 70 -27 70 -71v-614zM255 725l-132 60l-130 -61v35c0 45 13 61 50 83l81 49l79 -48c39 -23 52 -40 52 -87v-31z" />
    <glyph glyph-name="Idieresis" unicode="&#xcf;" horiz-adv-x="244" 
d="M183 0h-45c-39 0 -77 26 -77 80v605h52c37 0 70 -27 70 -71v-614zM205 869c34 0 63 -27 63 -61s-29 -63 -63 -63s-61 29 -61 63s27 61 61 61zM28 869c34 0 61 -27 61 -61s-27 -63 -61 -63s-62 29 -62 63s28 61 62 61z" />
    <glyph glyph-name="Igrave" unicode="&#xcc;" horiz-adv-x="244" 
d="M183 0h-45c-39 0 -77 26 -77 80v605h52c37 0 70 -27 70 -71v-614zM-10 844c0 36 22 51 52 51c36 0 64 -27 91 -58c25 -28 47 -63 61 -87v-5h-41c-35 0 -75 12 -104 26c-37 18 -59 42 -59 73z" />
    <glyph glyph-name="Oacute" unicode="&#xd3;" horiz-adv-x="590" 
d="M548 353c0 -233 -102 -365 -259 -365c-133 0 -247 126 -247 345c0 220 89 364 260 364c134 0 246 -119 246 -344zM429 334c0 177 -48 252 -138 252c-73 0 -130 -77 -130 -233c0 -187 56 -254 141 -254c72 0 127 73 127 235zM433 844c0 -31 -22 -55 -59 -73
c-29 -14 -69 -26 -104 -26h-41v5c14 24 36 59 61 87c27 31 55 58 91 58c30 0 52 -15 52 -51z" />
    <glyph glyph-name="Ocircumflex" unicode="&#xd4;" horiz-adv-x="590" 
d="M548 353c0 -233 -102 -365 -259 -365c-133 0 -247 126 -247 345c0 220 89 364 260 364c134 0 246 -119 246 -344zM429 334c0 177 -48 252 -138 252c-73 0 -130 -77 -130 -233c0 -187 56 -254 141 -254c72 0 127 73 127 235zM422 725l-132 60l-130 -61v35
c0 45 13 61 50 83l81 49l79 -48c39 -23 52 -40 52 -87v-31z" />
    <glyph glyph-name="Ograve" unicode="&#xd2;" horiz-adv-x="590" 
d="M548 353c0 -233 -102 -365 -259 -365c-133 0 -247 126 -247 345c0 220 89 364 260 364c134 0 246 -119 246 -344zM429 334c0 177 -48 252 -138 252c-73 0 -130 -77 -130 -233c0 -187 56 -254 141 -254c72 0 127 73 127 235zM141 844c0 36 22 51 52 51c36 0 64 -27 91 -58
c25 -28 47 -63 61 -87v-5h-41c-35 0 -75 12 -104 26c-37 18 -59 42 -59 73z" />
    <glyph glyph-name="Uacute" unicode="&#xda;" horiz-adv-x="557" 
d="M502 258c0 -174 -78 -270 -231 -270c-133 0 -216 97 -216 271v426h46c39 0 73 -25 73 -99v-324c0 -113 39 -159 110 -159c70 0 99 44 99 152v430h46c44 0 73 -26 73 -95v-332zM396 844c0 -31 -22 -55 -59 -73c-29 -14 -69 -26 -104 -26h-41v5c14 24 36 59 61 87
c27 31 55 58 91 58c30 0 52 -15 52 -51z" />
    <glyph glyph-name="Ucircumflex" unicode="&#xdb;" horiz-adv-x="557" 
d="M502 258c0 -174 -78 -270 -231 -270c-133 0 -216 97 -216 271v426h46c39 0 73 -25 73 -99v-324c0 -113 39 -159 110 -159c70 0 99 44 99 152v430h46c44 0 73 -26 73 -95v-332zM412 725l-132 60l-130 -61v35c0 45 13 61 50 83l81 49l79 -48c39 -23 52 -40 52 -87v-31z" />
    <glyph glyph-name="Ugrave" unicode="&#xd9;" horiz-adv-x="557" 
d="M502 258c0 -174 -78 -270 -231 -270c-133 0 -216 97 -216 271v426h46c39 0 73 -25 73 -99v-324c0 -113 39 -159 110 -159c70 0 99 44 99 152v430h46c44 0 73 -26 73 -95v-332zM124 844c0 36 22 51 52 51c36 0 64 -27 91 -58c25 -28 47 -63 61 -87v-5h-41
c-35 0 -75 12 -104 26c-37 18 -59 42 -59 73z" />
  </font>
</defs>
</svg>
